ExtraTorrent.cc - The Largest Bittorent SystemLogin   |   Register
Latest Articles
Most searched
Hot torrents
First Cams
View Torrent Info: Beauty and The Beast 2017 720p HD-TS x264-CPG
View Torrent Info: Kong.Skull.Island.2017.CAM.XviD-VAiN
View Torrent Info: The Shack 2017 HDCAM x264-iMLEAVING
View Torrent Info: T2.Trainspotting.2017.CAM.XViD-ETRG
Hot torrents
XVID DIVX
View Torrent Info: Deadman.Apocalypse.2016.HDRip.XviD.AC3-EVO
View Torrent Info: Peelers.2016.HDRip.XviD.AC3-EVO
View Torrent Info: The.Bye.Bye.Man.2017.HDRip.XViD-ETRG
View Torrent Info: Monster.Trucks.2016.HDRip.XViD-ETRG
Hot torrents
H264 X264
View Torrent Info: Sing.2016.BluRay.720p.DTS.AC3.x264-ETRG
View Torrent Info: Vengeance.A.Love.Story.2017.720p.BRRip.x264.AAC-ETRG
View Torrent Info: Moana.2016.BluRay.1080p.DTS.AC3.x264-ETRG
View Torrent Info: Assassins.Creed.2016.BluRay.720p.DTS.AC3.x264-ETRG
Hot torrents
BluRay, 4k UHD
View Torrent Info: Kabhi Khushi Kabhie Gham 2001 Bluray 1080p x264 DTSHD 5.1 -DDR
View Torrent Info: Passengers 2016 Multi UHD BluRay 2160p HEVC HDR10 DTSHD 5.1 -DDR
View Torrent Info: Dont Kill It 2016 BluRay 1080p x264 DTSHD5.1 -DDR
View Torrent Info: Warriors Gate 2016 1080p Bluray x264 DTSHD 5.1 -DDR
Hot torrents
Television
View Torrent Info: Bates.Motel.S05E06.WEB-DL.x264-FUM[ettv]
View Torrent Info: Supergirl.S02E17.HDTV.x264-LOL[ettv]
View Torrent Info: Taken.2017.S01E05.HDTV.x264-KILLERS[ettv]
View Torrent Info: Quantico.S02E15.HDTV.x264-KILLERS[ettv]
View Torrent Info: Hidden.Figures.2016.1080p.BRRip.x264.Turkish.AC3-ETRG
View Torrent Info: Kabhi Alvida Naa Kehna 2006 1080p Bluray x264 DTSHD 5.1 -DDR
View Torrent Info: Yo-Kai Watch Movie (2014) x264 720p BluRay {Dual Audio} [Hindi ORG DD 2.0   Japanese 5.1] Exclusive By DREDD
View Torrent Info: Dil To Pagal Hai 1997 BluRay 1080P x264 DTSHD 5.1 -DDR
30s
Chat
To add new messages please Login or Register for FREE
Warning! Stop Government from Tracking Your Torrenting!
Your IP Address is 54.144.250.128.   Location is United States
Your Internet Provider and Government can track your internet activity! Hide your IP and LOCATION with a VPN
ExtraTorrent strongly recommends using Trust.Zone VPN to anonymize your torrenting. It's FREE!
HIDE ME NOW


Music > Music lossless FLAC, WavPack (WV), APE (closed)



AuthorMessage
admin avatar
Posted: Mon Oct 24, 2011 15:47
Author:
admin
General Rules for lossless music - FLAC, WavPack (WV), APE


Prefered and accepted lossless codecs is FLAC, WV, APE - all as image+cue.
(more info: Lossless music. Lossless codecs. How to play/ripp/burn on CD Lossless)


What a disallowed to upload under lossless:
  1. Making upload with converted to lossless format from lossy codecs with lower bitrate such as mp3, AAC, WMA and others
  2. Uploading music in archives (zip, rar etc). Upload in torrent any executable files(*.exe, *.com & etc) and files or folders caontains ads for other resources.
  3. Upload images ripped with Nero Burning Rom, UltraISO, MagicISO, ISO Buster, Alcohol 120% and others (its *.mdf/*.mds, *.iso (expect *.iso.wv WV codec), *.nrg , *.bin+*.cue (dont mess up with image+cue)).
  4. Make tracklist or other information as picture. Only text format.
  5. Add posters/covers with ads or links to other sites
  6. Using in description text with all caps

Not Recommended: Upload files without name (Unknown Artist, Tracks01 etc)

Allowed: Add to rip additional screenshot, related to torrent video clips, covers, mp3-bonus files from original CD

Recommended: Add all tags information to .cue files (titles etc)

STRONGLY recommended: Add logs from ripping software (from EAC etc) as code listing. DO NOT modify it. And post it in spoiler and inside code tags.

How to make torrent title and description, tescription templates and examples you can read in next topic. dont avoid it too.

NOTE: It will be great if you add this text file to your upload: Torrent downloaded from ExtraTorrent.com.txt

admin avatar
Posted: Mon Oct 24, 2011 16:15
Author:
admin
How title and description must look for lossless music

For Single Album
Single Album - How TITLE must looks
Singer or Band - Album name [Genre] - Year (codec) - [release group]

Example:
The Beatles - Please Please Me [rock] - 1963 (FLAC) - [ETReleaseGroup]

* you can skip of adding [release group] just:
The Beatles - Please Please Me [rock] - 1963 (FLAC)
Single Album - Example how DESCRIPTION must looks
The Beatles - Please Please Me

example_cover.jpg

Year: 1963
Country: UK
Genre: Rock
Time duration: 54 minutes

Codec: FLAC (*.flac)
Type: tracks+.cue
Ripping Software: EAC
Bitrate: lossless


Tracklist:
01 I Saw Her Standing There 2:56
02 Misery 1:50
03 Anna (Go To Him) 2:58
04 Chains 2:26
05 Boys 2:28
06 Ask Me Why 2:28
07 Please Please Me 2:03
08 Love Me Do 2:23
09 P.S. I Love You 2:06
10 Baby Its You 2:38
11 Do You Want To Know A Secret 1:59
12 A Taste Of Honey 2:05
13 There's A Place 1:53
14 Twist And Shout 2:33

Information about album:
The first album of legendary Beatles.

Log from ripping software EAC
Code:
EAC extraction logfile from 1. September 2011, 10:38 for CD The Beatles / Please Please Me - German Stereo LP Ebbetts Used drive : _NEC DVD+-RW ND-6650A Adapter: 1 ID: 0 Read mode : Secure with NO C2, accurate stream, disable cache Read offset correction : 48 Overread into Lead-In and Lead-Out : No Used output format : C:\Program Files\Exact Audio Copy\flac-1.1.4-win\bin\flac.exe (User Defined Encoder) 192 kBit/s Additional command line options : # -8 -A tukey(0.25) -A gauss(0.1875) -b 4096 -V -T "artist=%a" -T "title=%t" -T "album=%g" -T "date=%y" -T "tracknumber=%n" -T "genre=%m" %s --sector-align Other options : Fill up missing offset samples with silence : Yes Delete leading and trailing silent blocks : No Installed external ASPI interface Track 1 Filename D:\Music\Beatles, The - Die Beatles (Please Please Me - German Stereo LP Ebbetts) FLAC\01 - The Beatles - I Saw Her Standing There.wav Pre-gap length 0:00:02.00 Peak level 100.0 % Track quality 100.0 % Test CRC 58869A25 Copy CRC 58869A25 Copy OK Track 2 Filename D:\Music\Beatles, The - Die Beatles (Please Please Me - German Stereo LP Ebbetts) FLAC\02 - The Beatles - 02 , Misery.wav Peak level 97.8 % Track quality 100.0 % Test CRC 2F24CE6D Copy CRC 2F24CE6D Copy OK Track 3 Filename D:\Music\Beatles, The - Die Beatles (Please Please Me - German Stereo LP Ebbetts) FLAC\03 - The Beatles - 03 , Anna (Go To Him).wav Peak level 98.1 % Track quality 100.0 % Test CRC 08EA34F3 Copy CRC 08EA34F3 Copy OK Track 4 Filename D:\Music\Beatles, The - Die Beatles (Please Please Me - German Stereo LP Ebbetts) FLAC\04 - The Beatles - 04 , Chains.wav Peak level 86.9 % Track quality 100.0 % Test CRC 7A4378A5 Copy CRC 7A4378A5 Copy OK Track 5 Filename D:\Music\Beatles, The - Die Beatles (Please Please Me - German Stereo LP Ebbetts) FLAC\05 - The Beatles - 05 , Boys.wav Peak level 98.7 % Track quality 100.0 % Test CRC 969E0F09 Copy CRC 969E0F09 Copy OK Track 6 Filename D:\Music\Beatles, The - Die Beatles (Please Please Me - German Stereo LP Ebbetts) FLAC\06 - The Beatles - 06 , Ask Me Why.wav Peak level 94.1 % Track quality 99.9 % Test CRC 5528CAF4 Copy CRC 5528CAF4 Copy OK Track 7 Filename D:\Music\Beatles, The - Die Beatles (Please Please Me - German Stereo LP Ebbetts) FLAC\07 - The Beatles - 07 , Please Please Me.wav Peak level 90.2 % Track quality 99.9 % Test CRC 3A1BA5A2 Copy CRC 3A1BA5A2 Copy OK Track 8 Filename D:\Music\Beatles, The - Die Beatles (Please Please Me - German Stereo LP Ebbetts) FLAC\08 - The Beatles - 08 , Love Me Do.wav Peak level 88.5 % Track quality 100.0 % Test CRC 30905D1D Copy CRC 30905D1D Copy OK Track 9 Filename D:\Music\Beatles, The - Die Beatles (Please Please Me - German Stereo LP Ebbetts) FLAC\09 - The Beatles - 09 , P.S. I Love You.wav Peak level 88.4 % Track quality 99.9 % Test CRC 13D74486 Copy CRC 13D74486 Copy OK Track 10 Filename D:\Music\Beatles, The - Die Beatles (Please Please Me - German Stereo LP Ebbetts) FLAC\10 - The Beatles - 10 , Baby It's You.wav Peak level 99.3 % Track quality 99.9 % Test CRC D6C57010 Copy CRC D6C57010 Copy OK Track 11 Filename D:\Music\Beatles, The - Die Beatles (Please Please Me - German Stereo LP Ebbetts) FLAC\11 - The Beatles - 11 , Do You Want To Know A Secret.wav Peak level 82.7 % Track quality 100.0 % Test CRC F199E23E Copy CRC F199E23E Copy OK Track 12 Filename D:\Music\Beatles, The - Die Beatles (Please Please Me - German Stereo LP Ebbetts) FLAC\12 - The Beatles - 12 , A Taste Of Honey.wav Peak level 82.1 % Track quality 100.0 % Test CRC 502EF698 Copy CRC 502EF698 Copy OK Track 13 Filename D:\Music\Beatles, The - Die Beatles (Please Please Me - German Stereo LP Ebbetts) FLAC\13 - The Beatles - 13 , There's A Place.wav Peak level 99.4 % Track quality 100.0 % Test CRC 006B2CAF Copy CRC 006B2CAF Copy OK Track 14 Filename D:\Music\Beatles, The - Die Beatles (Please Please Me - German Stereo LP Ebbetts) FLAC\14 - The Beatles - 14 , Twist And Shout.wav Peak level 97.4 % Track quality 100.0 % Test CRC 82950C9C Copy CRC 82950C9C Copy OK No errors occured End of status report
Index of .CUE
REM GENRE Rock
REM DATE 1963
REM DISCID B707BF0E
REM COMMENT "ExactAudioCopy v0.95b3"
PERFORMER "The Beatles"
TITLE "Please Please Me - German Stereo LP Ebbetts"
FILE "01 - The Beatles - I Saw Her Standing There.wav" WAVE
TRACK 01 AUDIO
TITLE "I Saw Her Standing There"
PERFORMER "The Beatles"
INDEX 01 00:00:00
FILE "02 - The Beatles - 02 , Misery.wav" WAVE
TRACK 02 AUDIO
TITLE "02 / Misery"
PERFORMER "The Beatles"
INDEX 01 00:00:00
FILE "03 - The Beatles - 03 , Anna (Go To Him).wav" WAVE
TRACK 03 AUDIO
TITLE "03 / Anna (Go To Him)"
PERFORMER "The Beatles"
INDEX 01 00:00:00
FILE "04 - The Beatles - 04 , Chains.wav" WAVE
TRACK 04 AUDIO
TITLE "04 / Chains"
PERFORMER "The Beatles"
INDEX 01 00:00:00
FILE "05 - The Beatles - 05 , Boys.wav" WAVE
TRACK 05 AUDIO
TITLE "05 / Boys"
PERFORMER "The Beatles"
INDEX 01 00:00:00
FILE "06 - The Beatles - 06 , Ask Me Why.wav" WAVE
TRACK 06 AUDIO
TITLE "06 / Ask Me Why"
PERFORMER "The Beatles"
INDEX 01 00:00:00
FILE "07 - The Beatles - 07 , Please Please Me.wav" WAVE
TRACK 07 AUDIO
TITLE "07 / Please Please Me"
PERFORMER "The Beatles"
INDEX 01 00:00:00
FILE "08 - The Beatles - 08 , Love Me Do.wav" WAVE
TRACK 08 AUDIO
TITLE "08 / Love Me Do"
PERFORMER "The Beatles"
INDEX 01 00:00:00
FILE "09 - The Beatles - 09 , P.S. I Love You.wav" WAVE
TRACK 09 AUDIO
TITLE "09 / P.S. I Love You"
PERFORMER "The Beatles"
INDEX 01 00:00:00
FILE "10 - The Beatles - 10 , Baby It's You.wav" WAVE
TRACK 10 AUDIO
TITLE "10 / Baby It's You"
PERFORMER "The Beatles"
INDEX 01 00:00:00
FILE "11 - The Beatles - 11 , Do You Want To Know A Secret.wav" WAVE
TRACK 11 AUDIO
TITLE "11 / Do You Want To Know A Secret"
PERFORMER "The Beatles"
INDEX 01 00:00:00
FILE "12 - The Beatles - 12 , A Taste Of Honey.wav" WAVE
TRACK 12 AUDIO
TITLE "12 / A Taste Of Honey"
PERFORMER "The Beatles"
INDEX 01 00:00:00
FILE "13 - The Beatles - 13 , There's A Place.wav" WAVE
TRACK 13 AUDIO
TITLE "13 / There's A Place"
PERFORMER "The Beatles"
INDEX 01 00:00:00
FILE "14 - The Beatles - 14 , Twist And Shout.wav" WAVE
TRACK 14 AUDIO
TITLE "14 / Twist And Shout"
PERFORMER "The Beatles"
INDEX 01 00:00:00


tutorials_flac.png
Single Album - Quick DESCRIPTION Template [copy-paste to description while upload]
Code:
[size=5]{title}[/size] [img][/img] [b]Year[/b]: [b]Country[/b]: [b]Genre[/b]: [b]Time duration[/b]: [b]Codec[/b]: [b]Type[/b]: [b]Ripping Software[/b]: [b]Bitrate[/b]: lossless [b]Tracklist[/b]: [b]Information about album[/b]: [spoiler="Log from ripping software EAC"][/spoiler] [spoiler="Index of .CUE"][/spoiler] [url=http://extratorrent.cc/forum/topic/11420/lossless+music+lossless+codecs+flac+how+to+play+it.html] [img]http://static.extratorrent.cc/images/other/tutorials_flac.png[/img] [/url]

Tips for this template:
{title} - its full title for this album. Singer-Band - Album name. Example: The Beatles - Please Please Me
next after title image - album cover
Tracklist - listing of all tracks. Track_Num Title duration. Exaple: 1 I Saw Her Standing There 2:56
Information about album - interesting info about this album. You can skip this.
Log from software - pure log from soft. ONLY native software log, not edited. Its allowed to skip it.
Index of .CUE - information from .CUE about titles, time etc. Its allowed to skip it.
Last URL will show image to lossless help page. Include it so people can read more about lossless.

Note: This is just example template. You can add more pretty tags, color, images, additional covers, bonuses etc.
admin avatar
Posted: Tue Oct 25, 2011 12:05
Author:
admin
How title and description must look for lossless music

For Discography
Discography - How TITLE must looks
Singer or Band - Discography [Genre] - Years (codec) - [release group]

Example:
The Beatles - Discography [rock] - 1963-1983 (FLAC) - [ETReleaseGroup]

* you can skip of adding [release group] just:
The Beatles - Discography [rock] - 1963-1983 (FLAC)

Other must be same as for Single album except Tracklist
Discography - EXAMPLE: How Albums list must looks
Albums:
1963 - Please Please Me
example_cover.jpg

Tracklist
01 I Saw Her Standing There 2:56
02 Misery 1:50
03 Anna (Go To Him) 2:58
04 Chains 2:26
05 Boys 2:28
06 Ask Me Why 2:28
07 Please Please Me 2:03
08 Love Me Do 2:23
09 P.S. I Love You 2:06
10 Baby Its You 2:38
11 Do You Want To Know A Secret 1:59
12 A Taste Of Honey 2:05
13 There's A Place 1:53
14 Twist And Shout 2:33

Log from ripping software EAC
Code:
EAC extraction logfile from 1. September 2011, 10:38 for CD The Beatles / Please Please Me - German Stereo LP Ebbetts Used drive : _NEC DVD+-RW ND-6650A Adapter: 1 ID: 0 Read mode : Secure with NO C2, accurate stream, disable cache Read offset correction : 48 Overread into Lead-In and Lead-Out : No Used output format : C:\Program Files\Exact Audio Copy\flac-1.1.4-win\bin\flac.exe (User Defined Encoder) 192 kBit/s Additional command line options : # -8 -A tukey(0.25) -A gauss(0.1875) -b 4096 -V -T "artist=%a" -T "title=%t" -T "album=%g" -T "date=%y" -T "tracknumber=%n" -T "genre=%m" %s --sector-align Other options : Fill up missing offset samples with silence : Yes Delete leading and trailing silent blocks : No Installed external ASPI interface Track 1 Filename D:\Music\Beatles, The - Die Beatles (Please Please Me - German Stereo LP Ebbetts) FLAC\01 - The Beatles - I Saw Her Standing There.wav Pre-gap length 0:00:02.00 Peak level 100.0 % Track quality 100.0 % Test CRC 58869A25 Copy CRC 58869A25 Copy OK Track 2 Filename D:\Music\Beatles, The - Die Beatles (Please Please Me - German Stereo LP Ebbetts) FLAC\02 - The Beatles - 02 , Misery.wav Peak level 97.8 % Track quality 100.0 % Test CRC 2F24CE6D Copy CRC 2F24CE6D Copy OK Track 3 Filename D:\Music\Beatles, The - Die Beatles (Please Please Me - German Stereo LP Ebbetts) FLAC\03 - The Beatles - 03 , Anna (Go To Him).wav Peak level 98.1 % Track quality 100.0 % Test CRC 08EA34F3 Copy CRC 08EA34F3 Copy OK Track 4 Filename D:\Music\Beatles, The - Die Beatles (Please Please Me - German Stereo LP Ebbetts) FLAC\04 - The Beatles - 04 , Chains.wav Peak level 86.9 % Track quality 100.0 % Test CRC 7A4378A5 Copy CRC 7A4378A5 Copy OK Track 5 Filename D:\Music\Beatles, The - Die Beatles (Please Please Me - German Stereo LP Ebbetts) FLAC\05 - The Beatles - 05 , Boys.wav Peak level 98.7 % Track quality 100.0 % Test CRC 969E0F09 Copy CRC 969E0F09 Copy OK Track 6 Filename D:\Music\Beatles, The - Die Beatles (Please Please Me - German Stereo LP Ebbetts) FLAC\06 - The Beatles - 06 , Ask Me Why.wav Peak level 94.1 % Track quality 99.9 % Test CRC 5528CAF4 Copy CRC 5528CAF4 Copy OK Track 7 Filename D:\Music\Beatles, The - Die Beatles (Please Please Me - German Stereo LP Ebbetts) FLAC\07 - The Beatles - 07 , Please Please Me.wav Peak level 90.2 % Track quality 99.9 % Test CRC 3A1BA5A2 Copy CRC 3A1BA5A2 Copy OK Track 8 Filename D:\Music\Beatles, The - Die Beatles (Please Please Me - German Stereo LP Ebbetts) FLAC\08 - The Beatles - 08 , Love Me Do.wav Peak level 88.5 % Track quality 100.0 % Test CRC 30905D1D Copy CRC 30905D1D Copy OK Track 9 Filename D:\Music\Beatles, The - Die Beatles (Please Please Me - German Stereo LP Ebbetts) FLAC\09 - The Beatles - 09 , P.S. I Love You.wav Peak level 88.4 % Track quality 99.9 % Test CRC 13D74486 Copy CRC 13D74486 Copy OK Track 10 Filename D:\Music\Beatles, The - Die Beatles (Please Please Me - German Stereo LP Ebbetts) FLAC\10 - The Beatles - 10 , Baby It's You.wav Peak level 99.3 % Track quality 99.9 % Test CRC D6C57010 Copy CRC D6C57010 Copy OK Track 11 Filename D:\Music\Beatles, The - Die Beatles (Please Please Me - German Stereo LP Ebbetts) FLAC\11 - The Beatles - 11 , Do You Want To Know A Secret.wav Peak level 82.7 % Track quality 100.0 % Test CRC F199E23E Copy CRC F199E23E Copy OK Track 12 Filename D:\Music\Beatles, The - Die Beatles (Please Please Me - German Stereo LP Ebbetts) FLAC\12 - The Beatles - 12 , A Taste Of Honey.wav Peak level 82.1 % Track quality 100.0 % Test CRC 502EF698 Copy CRC 502EF698 Copy OK Track 13 Filename D:\Music\Beatles, The - Die Beatles (Please Please Me - German Stereo LP Ebbetts) FLAC\13 - The Beatles - 13 , There's A Place.wav Peak level 99.4 % Track quality 100.0 % Test CRC 006B2CAF Copy CRC 006B2CAF Copy OK Track 14 Filename D:\Music\Beatles, The - Die Beatles (Please Please Me - German Stereo LP Ebbetts) FLAC\14 - The Beatles - 14 , Twist And Shout.wav Peak level 97.4 % Track quality 100.0 % Test CRC 82950C9C Copy CRC 82950C9C Copy OK No errors occured End of status report
Index of .CUE
REM GENRE Rock
REM DATE 1963
REM DISCID B707BF0E
REM COMMENT "ExactAudioCopy v0.95b3"
PERFORMER "The Beatles"
TITLE "Please Please Me - German Stereo LP Ebbetts"
FILE "01 - The Beatles - I Saw Her Standing There.wav" WAVE
TRACK 01 AUDIO
TITLE "I Saw Her Standing There"
PERFORMER "The Beatles"
INDEX 01 00:00:00
FILE "02 - The Beatles - 02 , Misery.wav" WAVE
TRACK 02 AUDIO
TITLE "02 / Misery"
PERFORMER "The Beatles"
INDEX 01 00:00:00
FILE "03 - The Beatles - 03 , Anna (Go To Him).wav" WAVE
TRACK 03 AUDIO
TITLE "03 / Anna (Go To Him)"
PERFORMER "The Beatles"
INDEX 01 00:00:00
FILE "04 - The Beatles - 04 , Chains.wav" WAVE
TRACK 04 AUDIO
TITLE "04 / Chains"
PERFORMER "The Beatles"
INDEX 01 00:00:00
FILE "05 - The Beatles - 05 , Boys.wav" WAVE
TRACK 05 AUDIO
TITLE "05 / Boys"
PERFORMER "The Beatles"
INDEX 01 00:00:00
FILE "06 - The Beatles - 06 , Ask Me Why.wav" WAVE
TRACK 06 AUDIO
TITLE "06 / Ask Me Why"
PERFORMER "The Beatles"
INDEX 01 00:00:00
FILE "07 - The Beatles - 07 , Please Please Me.wav" WAVE
TRACK 07 AUDIO
TITLE "07 / Please Please Me"
PERFORMER "The Beatles"
INDEX 01 00:00:00
FILE "08 - The Beatles - 08 , Love Me Do.wav" WAVE
TRACK 08 AUDIO
TITLE "08 / Love Me Do"
PERFORMER "The Beatles"
INDEX 01 00:00:00
FILE "09 - The Beatles - 09 , P.S. I Love You.wav" WAVE
TRACK 09 AUDIO
TITLE "09 / P.S. I Love You"
PERFORMER "The Beatles"
INDEX 01 00:00:00
FILE "10 - The Beatles - 10 , Baby It's You.wav" WAVE
TRACK 10 AUDIO
TITLE "10 / Baby It's You"
PERFORMER "The Beatles"
INDEX 01 00:00:00
FILE "11 - The Beatles - 11 , Do You Want To Know A Secret.wav" WAVE
TRACK 11 AUDIO
TITLE "11 / Do You Want To Know A Secret"
PERFORMER "The Beatles"
INDEX 01 00:00:00
FILE "12 - The Beatles - 12 , A Taste Of Honey.wav" WAVE
TRACK 12 AUDIO
TITLE "12 / A Taste Of Honey"
PERFORMER "The Beatles"
INDEX 01 00:00:00
FILE "13 - The Beatles - 13 , There's A Place.wav" WAVE
TRACK 13 AUDIO
TITLE "13 / There's A Place"
PERFORMER "The Beatles"
INDEX 01 00:00:00
FILE "14 - The Beatles - 14 , Twist And Shout.wav" WAVE
TRACK 14 AUDIO
TITLE "14 / Twist And Shout"
PERFORMER "The Beatles"
INDEX 01 00:00:00
1963 - With The Beatles
2dgtbig.jpg

Tracklist
01 It Won't Be Long 2:14
02 All I've Got To Do 2:05
03 All My Loving 2:10
04 Don't Bother Me 2:29
05 Little Child 1:48
06 Till There Was You 2:17
07 Please Mister Postman 2:37
08 Roll Oover Beethoven 2:48
09 Hold Me Tight 2:33
10 You Really Got A Hold On Me 3:03
11 I Wanna Be Your Man 1:59
12 Devil In Her Heart 2:28
13 Not A Second Time 2:08
14 Money (That's What I Want) 2:48
1964 - A Hard Day's Night
11vllpz.jpg

Tracklist
01 A Hard Day's Night 2:33
02 I Should Have Known Better 2:44
03 If I Fell 2:22
04 I'm Happy Just To Dance With You 1:59
05 And I Love Her 2:31
06 Tell Me Why 2:10
07 Can't Buy Me Love 2:15
08 Any Time At All 2:13
09 I'll Cry Instead 1:48
10 Things We Said Today 2:39
11 When I Get Home 2:18
12 You Can't Do That 2:38
13 I'll Be Back 2:21
1964 - Beatles For Sale
14ak6fr.jpg

Tracklist
01 No Reply 2:18
02 I'm A Loser 2:34
03 Baby's In Black 2:08
04 Rock & Roll Music 2:34
05 I'll Follow The Sun 1:51
06 Mr. Moonlight 2:37
07 Kansas City/Hey, Hey, Hey, Hey 2:33
08 Eight Days A Week 2:45
09 Words Of Love 2:15
10 Honey Don't 3:00
11 Every Little Thing 2:05
12 I Don't Want To Spoil The Party 2:36
13 What You're Doing 2:35
14 Everybody's Trying To Be My Baby 2:24
1965 - Help!
2rmp9ww.png

Tracklist
01 Help! 2:21
02 The Night Before 2:37
03 You've Got To Hide Your Love Away 2:11
04 I Need You 2:31
05 Another Girl 2:08
06 You're Going To Lose That Girl 2:20
07 Ticket To Ride 3:12
08 Act Naturally 2:33
09 It's Only Love 1:59
10 You Like Me Too Much 2:39
11 Tell Me What You See 2:40
12 I've Just Seen A Face 2:07
13 Yesterday 2:07
14 Dizzy Miss Lizzy 2:54
Discography - TEMPLATE: Albums list
Code:
[b]Albums[/b]: [spoiler=""] [img][/img] [b]Tracklist[/b] [spoiler="Log from ripping software EAC"][/spoiler] [spoiler="Index of .CUE"][/spoiler] [/spoiler]



Forum Search


  search in post message
  search in topic subject
Forum


Home - Browse Torrents - Upload Torrent - Stat - Forum - FAQ - Login
ExtraTorrent.cc is in compliance with copyrights
BitCoin: 12DiyqsWhENahDzdhdYsRrCw8FPQVcCkcm
Can't load ExtraTorrent? Try our official mirrors: etmirror.com - etproxy.com - extratorrentonline.com - extratorrentlive.com
2006-2017 ExtraTorrent.cc1