ExtraTorrent.cc - The Largest Bittorent SystemLogin   |   Register
Latest Articles
Most searched
Hot torrents
First Cams
View Torrent Info: The Fate of the Furious 2017 HD-TS x264 AC3-CPG
View Torrent Info: The Boss Baby 2017 720p HD-TS x264 AC3-CPG
View Torrent Info: Before I Fall 2017 HDCAM 700MB x264-DiRG
View Torrent Info: The Belko Experiment 2017 HDCAM 700MB x264-DiRG
Hot torrents
XVID DIVX
View Torrent Info: Mythica.The.Iron.Crown.2016.BRRip.XviD.AC3-EVO
View Torrent Info: The.Void.2016.BRRip.XviD.AC3-EVO
View Torrent Info: Joes.War.2017.HDRip.XviD.AC3-EVO
View Torrent Info: The.Levelling.2016.HDRip.XviD.AC3-EVO
Hot torrents
H264 X264
View Torrent Info: Fifty.Shades.Darker.2017.UNRATED.720p.WEB-DL.H264.AC3-EVO[EtHD]
View Torrent Info: Jurassic World (2015) 720p BluRay x264 DTS Soup
View Torrent Info: Wolves.At.the.Door.2016.720p.WEB-DL.H264.AC3-ETRG
View Torrent Info: The.Legend.of.Ben.Hall.2016.720p.BluRay.x264-ENCOUNTERS[EtHD]
Hot torrents
BluRay, 4k UHD
View Torrent Info: The Legend of Ben Hall 2016 Bluray 1080p x264 DTSHD5.1 -DDR
View Torrent Info: Hacker.2016.BluRay.1080p.AVC.DTS-HD.MA5.1-DDR
View Torrent Info: Carmen.1984.1080p.Blu-ray.x264.DTSHD.5.1-DDR
View Torrent Info: Planet Earth II S01E05-06 HEVC 2160p UHD 360? BluRay HDR DTSHD5.1-DDR
Hot torrents
Television
View Torrent Info: The.Flash.2014.S03E19.WEB-DL.x264-FUM[ettv]
View Torrent Info: Prison.Break.S05E04.HDTV.x264-KILLERS[ettv]
View Torrent Info: Marvels.Agents.of.S.H.I.E.L.D.S04E19.HDTV.x264-KILLERS[ettv]
View Torrent Info: The.Americans.2013.S05E08.HDTV.x264-KILLERS[ettv]
View Torrent Info: Ho Mann Jahaan (2016) 1080p Untouched WEBHD AVC AAC [DDR]
View Torrent Info: Karachi Se Lahore (2015) 720p Untouched WEBHD AVC AAC [DDR]
View Torrent Info: Shah (2015) 1080p Untouched WEBHD AVC AAC [DDR]
View Torrent Info: Wrong Number (2015) 1080p Untouched WEBHD AVC AAC [DDR]
30s
Chat
To add new messages please Login or Register for FREE
Warning! Stop Government from Tracking Your Torrenting!
Your IP Address is 54.162.125.164.   Location is United States
Your Internet Provider and Government can track your internet activity! Hide your IP and LOCATION with a VPN
ExtraTorrent strongly recommends using Trust.Zone VPN to anonymize your torrenting. It's FREE!
HIDE ME NOW


The Original Dr Who Seasons?


Post a Reply    Subscribe to Topic    
AuthorMessage
TurtleTom100 avatar
Posted: Thu Apr 19, 2012 01:04
Author:
I have been looking everywhere for the original seasons of dr who i have come across alot with bad health i dont suppose anyone has these or could point me in the right direction
cheers in advance
Big_A_Little_A avatar
Posted: Thu Apr 19, 2012 01:36
Author: Site FriendSupermanimmortal
Well I take it as you mean "the Original Seasons" what do you class that as? would it be from series 1 (1963) to series 26 (1989)(this was the last season before it was taken off air and then brought back in 1996)

Can you be a little bit more specific in what seasons your actually after.In the mean time this post might interest you.

http://extratorrent.cc/forum/topic/13285/doctor+who+tom+baker.html
TurtleTom100 avatar
Posted: Thu Apr 19, 2012 14:59
Author:
i am looking for all the older ones before 1996 i have found all the first lot starring William Hartnell as The First Doctor and will be wring my way through, if anyone is interested in these aswell i will re upload (But will need to be taught how this works properly as i have never been successful) But any help on this would also be appreciated. i am still after season 2 onwards
Big_A_Little_A avatar
Posted: Thu Apr 19, 2012 16:36
Author: Site FriendSupermanimmortal
TurtleTom100 wrote:
i am looking for all the older ones before 1996 i have found all the first lot starring William Hartnell as The First Doctor and will be wring my way through, if anyone is interested in these aswell i will re upload (But will need to be taught how this works properly as i have never been successful) But any help on this would also be appreciated. i am still after season 2 onwards

right I'm a bit confused now, you say your looking for the seasons pre 1996, which would be seasons 1 to season 26,fine so from the link to the other topic I gave you you should be able to get seasons 13,14,15,16 and 18.

And you say you have "i have found all the first lot starring William Hartnell as The First Doctor" and you are still after season 2. But with William Hartnell as The First Doctor he did seasons 1-4 so do you have these or not??

If you can use the link here to look at Seasons/Episodes and post back exactly what you sill need,

http://en.wikipedia.org/wiki/List_of_Doctor_Who_serials#First_Doctor


First Doctor
Season 1 (1963–64)
Season 2 (1964–65)
Season 3 (1965–66)
Season 4 (1966–67) 8 Episodes

Second Doctor
Season 4 (1966–67)
Season 5 (1967–68)
Season 6 (1968–69)

Third Doctor
Season 7 (1970)
Season 8 (1971)
Season 9 (1972)
Season 10 (1972–73)
Season 11 (1973–74)

Fourth Doctor
Season 12 (1974–75)
Season 13 (1975–76)
Season 14 (1976–77)
Season 15 (1977–78)
Season 16 (1978–79)
Season 17 (1979–80)
Season 18 (1980–81)

Fifth Doctor
Season 19 (1982)
Season 20 (1983)
Special (1983)
Season 21 (1984)

Sixth Doctor
Season 21 (1984) continued
Season 22 (1985)
Season 23 (1986)

Seventh Doctor
Season 24 (1987)
Season 25 (1988–89)
Season 26 (1989)

No avatar
Posted: Fri Apr 20, 2012 22:20
Author: Blocked
or
Quote:
Doctor Who is a British science fiction television programme produced by the BBC. As of 26 June 2010, 769 individual episodes, including one television movie of Doctor Who have been aired, encompassing 212 stories.


This is Everything from Doctor who not including spin-off's and reconstructions. Some Episodes are missing due to a massive fire in the BBC which got a lot of film and also due to storage being so expensive it had to be reused. However this is everything (and i mean everything) that is available today. Due to the fact that series didnt exist back when the original Doctor Who was around some of these are not in Serial and episode order but instead in story order.


I have reorganized the entire original Doctor Who according to the Wikipedia List of Serials at http://en.wikipedia.org/wiki/List_of_Doctor_Who_serials


So here is a list of everything that is in this pack
Series 1 to 26 (according to wikipedia) of the original Doctor Who from 1963 to 1989 (not including the lost episodes or reconstructions (as there just pictures) They vary in codecs , quality , picture size etc due to the period of time from which they originate

Up until Survival in 1989, every story was a multi-episode serial, with two exceptions: the 1965 cutaway episode "Mission to the Unknown"; and the 20th anniversary story The Five Doctors. The characters in the column after the serial titles indicate the code used by the production team to designate the serial, where applicable, and are followed either by the titles of the individual episodes where given or by the number of episodes otherwise. Unless otherwise noted, episodes in this period are 25 minutes long. During the early seasons of the programme most serials were linked together and one would usually lead directly into the next.

Typical file details from Doctor Who Original
Format : AVI
Format/Info : Audio Video Interleave
File size : 338 MiB
Duration : 24mn 30s
Overall bit rate : 1 927 Kbps
Writing library : VirtualDub-MPEG2-AC3 build 16302/release

Video
ID : 0
Format : MPEG-4 Visual
Format settings, BVOP : Yes
Format settings, QPel : No
Format settings, GMC : No warppoints
Format settings, Matrix : Default (H.263)
Muxing mode : Packed bitstream
Codec ID : DX50
Codec ID/Hint : DivX 5
Duration : 24mn 30s
Bit rate : 1 787 Kbps
Width : 640 pixels
Height : 480 pixels
Display aspect ratio : 4:3
Frame rate : 29.970 fps
Color space : YUV
Chroma subsampling : 4:2:0
Bit depth : 8 bits
Scan type : Progressive
Bits/(Pixel*Frame) : 0.194
Stream size : 313 MiB (93%)
Writing library : DivX 5.1.1 (Maupiti) (UTC 2003-11-19)

Audio
ID : 1
Format : MPEG Audio
Format version : Version 1
Format profile : Layer 3
Mode : Joint stereo
Mode extension : MS Stereo
Codec ID : 55
Codec ID/Hint : MP3
Duration : 24mn 30s
Bit rate mode : Constant
Bit rate : 128 Kbps
Channel(s) : 2 channels
Sampling rate : 44.1 KHz
Stream size : 22.4 MiB (7%)
Alignment : Split accross interleaves
Interleave, duration : 33 ms (1.00 video frame)
Interleave, preload duration : 500 ms


The Doctor Who movie from 1996
The%20Movie%20.jpg
Developed as a co-production amongst Universal Television, BBC Television, BBC Worldwide, and the Fox Network, the 1996 television film premiered on 12 May 1996 on CITV in Edmonton, Alberta, Canada — fifteen days before its first showing in the United Kingdom on BBC One, and two days before being broadcast in the United States on Fox.

The film was the first attempt to revive Doctor Who, following its cancellation in 1989. It was intended as a back door pilot for a new American-produced Doctor Who TV series, and introduced Paul McGann as the Eighth Doctor in his only televised appearance as the character. Although a ratings success in the United Kingdom, the film did not fare well on American television, and no new series was purchased. The series was later relaunched on the BBC in 2005.[1]

Although the film was primarily produced by different hands from the 1963-89 series, and intended for an American audience, the producers chose to produce not a "reimagining" or "reboot" of the series (examples of such proposals can be found in Jean-Marc Lofficier's book The Nth Doctor (Virgin Publishing, 1997)), but rather a continuation of the original narrative. The production was filmed in Vancouver, British Columbia, to date the only episode of Doctor Who filmed in Canada.

Format : AVI
Format/Info : Audio Video Interleave
File size : 1.37 GiB
Duration : 1h 25mn
Overall bit rate : 2 283 Kbps
Writing application : VirtualDubMod 1.5.4.1 (build 2178/release)
Writing library : VirtualDubMod build 2178/release

Video
ID : 0
Format : MPEG-4 Visual
Format profile : Advanced [email protected]
Format settings, BVOP : Yes
Format settings, QPel : No
Format settings, GMC : No warppoints
Format settings, Matrix : Custom
Codec ID : XVID
Codec ID/Hint : XviD
Duration : 1h 25mn
Bit rate : 1 737 Kbps
Width : 656 pixels
Height : 496 pixels
Display aspect ratio : 4:3
Frame rate : 25.000 fps
Color space : YUV
Chroma subsampling : 4:2:0
Bit depth : 8 bits
Scan type : Progressive
Bits/(Pixel*Frame) : 0.213
Stream size : 1.04 GiB (76%)
Writing library : XviD 1.2.1 (UTC 2008-12-04)

Audio #1
ID : 1
Format : AC-3
Format/Info : Audio Coding 3
Mode extension : CM (complete main)
Codec ID : 2000
Duration : 1h 25mn
Bit rate mode : Constant
Bit rate : 192 Kbps
Channel(s) : 2 channels
Channel positions : Front: L R
Sampling rate : 48.0 KHz
Bit depth : 16 bits
Stream size : 118 MiB (8%)
Alignment : Aligned on interleaves
Interleave, duration : 96 ms (2.40 video frames)
Interleave, preload duration : 96 ms
Language : English

Audio #2
ID : 2
Format : MPEG Audio
Format version : Version 1
Format profile : Layer 3
Mode : Joint stereo
Mode extension : MS Stereo
Codec ID : 55
Codec ID/Hint : MP3
Duration : 1h 25mn
Bit rate mode : Variable
Bit rate : 110 Kbps
Nominal bit rate : 128 Kbps
Channel(s) : 2 channels
Sampling rate : 48.0 KHz
Stream size : 67.3 MiB (5%)
Alignment : Aligned on interleaves
Interleave, duration : 24 ms (0.60 video frame)
Interleave, preload duration : 168 ms
Writing library : LAME3.98r
Encoding settings : -m j -V 4 -q 2 -lowpass 17 --abr 128
Language : English

Audio #3
ID : 3
Format : MPEG Audio
Format version : Version 1
Format profile : Layer 3
Mode : Joint stereo
Mode extension : MS Stereo
Codec ID : 55
Codec ID/Hint : MP3
Duration : 1h 25mn
Bit rate mode : Variable
Bit rate : 120 Kbps
Nominal bit rate : 128 Kbps
Channel(s) : 2 channels
Sampling rate : 48.0 KHz
Stream size : 73.6 MiB (5%)
Alignment : Aligned on interleaves
Interleave, duration : 24 ms (0.60 video frame)
Interleave, preload duration : 153 ms
Writing library : LAME3.98r
Encoding settings : -m j -V 4 -q 2 -lowpass 17 --abr 128
Language : English

Audio #4
ID : 4
Format : MPEG Audio
Format version : Version 1
Format profile : Layer 3
Mode : Joint stereo
Mode extension : MS Stereo
Codec ID : 55
Codec ID/Hint : MP3
Duration : 1h 25mn
Bit rate mode : Variable
Bit rate : 94.5 Kbps
Nominal bit rate : 128 Kbps
Channel(s) : 2 channels
Sampling rate : 48.0 KHz
Stream size : 58.0 MiB (4%)
Alignment : Aligned on interleaves
Interleave, duration : 24 ms (0.60 video frame)
Interleave, preload duration : 195 ms
Writing library : LAME3.98r
Encoding settings : -m j -V 4 -q 2 -lowpass 17 --abr 128
Language : English


Doctor Who (2005)

Series 1
Series 2
Series 3
Series 4
Series 5
And All Specials

Typical File Detials from Doctor who (2005)
Doctor.Who.2005.S03E11.Utopia.DVDRip.XviD-RiVER.avi
Format : AVI
Format/Info : Audio Video Interleave
File size : 349 MiB
Duration : 45mn 57s
Overall bit rate : 1 063 Kbps
Writing application : VirtualDubMod 1.5.10.2 (build 2540/release)
Writing library : VirtualDubMod build 2540/release

Video
ID : 0
Format : MPEG-4 Visual
Format profile : Advanced [email protected]
Format settings, BVOP : Yes
Format settings, QPel : No
Format settings, GMC : No warppoints
Format settings, Matrix : Default (H.263)
Muxing mode : Packed bitstream
Codec ID : XVID
Codec ID/Hint : XviD
Duration : 45mn 57s
Bit rate : 921 Kbps
Width : 640 pixels
Height : 352 pixels
Display aspect ratio : 16:9
Frame rate : 25.000 fps
Color space : YUV
Chroma subsampling : 4:2:0
Bit depth : 8 bits
Scan type : Progressive
Bits/(Pixel*Frame) : 0.164
Stream size : 303 MiB (87%)
Writing library : XviD 1.0.3 (UTC 2004-12-20)

Oh and I forgot to mention. A ton of Extras on everything including Audio commentaries and other stuff included in each folder

Enjoy!

Post a Reply    

Forum Search


  search in post message
  search in topic subject
Forum


Home - Browse Torrents - Upload Torrent - Stat - Forum - FAQ - Login
ExtraTorrent.cc is in compliance with copyrights
Can't load ExtraTorrent? Try our official mirrors: etmirror.com - etproxy.com - extratorrentonline.com - extratorrentlive.com
2006-2017 ExtraTorrent.cc3