ExtraTorrent.cc - The Largest Bittorent SystemLogin   |   Register
Latest Articles
Most searched
Hot torrents
First Cams
View Torrent Info: Guardians of the Galaxy Vol. 2 2017 NEW HDCAM x264 HQMic-CPG
View Torrent Info: Free Fire 2017 HDCAM x264-CPG
View Torrent Info: The.Fate.of.the.Furious.2017.HDTS.H264.AC3.HQ.Hive-CM8
View Torrent Info: The Boss Baby 2017 720p HD-TS x264 AC3-CPG
Hot torrents
XVID DIVX
View Torrent Info: The Wolfman Legacy - Werewolf of London (1935) Xvid DvDRip [DDR]
View Torrent Info: Dont.Fuck.in.the.Woods.2016.HDRip.XviD.AC3-EVO
View Torrent Info: Small.Crimes.2017.HDRip.XviD.AC3-EVO
View Torrent Info: The.Sex Addict.2017.HDRip.XViD-ETRG
Hot torrents
H264 X264
View Torrent Info: Small Crimes (2017) NF - 720p WEBRiP - 850MB - ShAaNiG
View Torrent Info: Rogue One (2016) 720p BluRay x264 DTS Soup
View Torrent Info: Sold (2016) x264 DvDRip DDS 5.1 Esub -DDR
View Torrent Info: Voice.from.the.Stone.2017.720p.WEB-DL.H264.AC3-ETRG
Hot torrents
BluRay, 4k UHD
View Torrent Info: The Hunt For Red October 1990 1080p BluRay x264 TrueHD 5.1 -DDR
View Torrent Info: Sniper 1993 1080p BluRay x264 DTSHD 5.1 -DDR
View Torrent Info: Poltergeist 1982 1080p Bluray x264 Multi TrueHD 5.1 -DDR
View Torrent Info: Priest 2011 Multi BluRay 1080p x264 DTSHD 5.1 -DDR
Hot torrents
Television
View Torrent Info: The.Son.S01E05.WEB-DL.x264-FUM[ettv]
View Torrent Info: Training.Day.S01E10.WEB-DL.x264-FUM[ettv]
View Torrent Info: Samurai.Jack.S05E07.HDTV.x264-W4F[ettv]
View Torrent Info: The.Originals.S04E06.WEB-DL.x264-FUM[ettv]
View Torrent Info: Bahubali 2 - The Conclusion 2017 x264 DesiPDVD Rip AAC 2.0 -DDR
View Torrent Info: The Ghazi Attack (2017) - 1080p - BluRay - x264 - DTS - ESub - [DDR]
View Torrent Info: Vaishali (2011) HQ Bluray 1080p x264 DTSHD 5.1 -DDR
View Torrent Info: [ 18] Sechs Schwedinnen auf Ibiza (1981) BDRip 720p x264 [Multi Audio] [German Spanish English]--prisak~~{HKRG}
30s
Chat
To add new messages please Login or Register for FREE
Warning! Stop Government from Tracking Your Torrenting!
Your IP Address is 54.198.187.30.   Location is United States
Your Internet Provider and Government can track your internet activity! Hide your IP and LOCATION with a VPN
ExtraTorrent strongly recommends using Trust.Zone VPN to anonymize your torrenting. It's FREE!
HIDE ME NOW


Trusted Uploader Status Application Here


Post a Reply    Subscribe to Topic    
[Prev]  1, 2, 3, 4, 5 ... 193, 194, 195 ... 203, 204  [Next]
Page 194 of 204   [ 3057 posts ]
AuthorMessage
OSTech avatar
Posted: Thu Sep 22, 2016 00:06
Author: Trusted Uploader
Hello ET Staffs
If i am eligible for Trusted Uploader Rank than Kindly Upgrade My Account to Trusted Uploader Rank , if not yet eligible Then No issue will continue to serve the community :).
Have A Good Day.

Software Uploading Permission Granted By Ozi
bossman2013 avatar
Posted: Fri Sep 23, 2016 19:54
Author:


[img]Code:[/img]
Format version : Version 1
File size : 1.09 GiB
Duration : 2 h 15 min
Overall bit rate mode : Variable
Overall bit rate : 1 154 kb/s
Encoded date : UTC 2016-09-23 10:37:37
Writing library : WonderShare Matroska Muxer

Video
ID : 1
Format : AVC
Format/Info : Advanced Video Codec
Format profile : [email protected]
Format settings, CABAC : No
Format settings, ReFrames : 2 frames
Format settings, GOP : M=1, N=24
Codec ID : V_MPEG4/ISO/AVC
Duration : 2 h 15 min
Bit rate mode : Variable
Bit rate : 875 kb/s
Maximum bit rate : 1 350 kb/s
Width : 768 pixels
Height : 344 pixels
Display aspect ratio : 2.25:1
Frame rate mode : Constant
Frame rate : 24.000 FPS
Color space : YUV
Chroma subsampling : 4:2:0
Bit depth : 8 bits
Scan type : Progressive
Bits/(Pixel*Frame) : 0.138
Stream size : 848 MiB (76%)
Default : Yes
Forced : No

Audio
ID : 2
Format : AC-3
Format/Info : Audio Coding 3
Mode extension : CM (complete main)
Format settings, Endianness : Big
Codec ID : A_AC3
Duration : 2 h 15 min
Bit rate mode : Constant
Bit rate : 256 kb/s
Channel(s) : 6 channels
Channel positions : Front: L C R, Side: L R, LFE
Sampling rate : 48.0 kHz
Frame rate : 31.250 FPS (1536 spf)
Bit depth : 16 bits
Compression mode : Lossy
Stream size : 248 MiB (22%)
Default : Yes
Forced : No





Code:
A BOSSMAN Exclusive Encode




Silmarillion avatar
Posted: Fri Sep 23, 2016 19:59
Author: AdminVip MemberBitcoin MasterSun
bossman2013 wrote:
dear admin plz reply my postin new bollywood movie
read here
http://extratorrent.cc/forum/topic/24326/trial+uploader+status.html
motorcycleparade avatar
Posted: Mon Sep 26, 2016 16:19
Author: Trusted Uploadermen
User: motorcycleparade

extratorrent.cc/profile/motorcycleparade/torrents/
Silmarillion avatar
Posted: Mon Sep 26, 2016 17:53
Author: AdminVip MemberBitcoin MasterSun
motorcycleparade wrote:
User: motorcycleparade

extratorrent.cc/profile/motorcycleparade/torrents/
NO
1 too soon
2 read again upload rules - Don't Upload torrent using more than 10-15 trackers

your last 11 uploads - Trackers: 16 View all torrent trackers >
BeerKey avatar
Posted: Mon Sep 26, 2016 18:22
Author: Turtle
I am wondering if I am eligible for Trusted Uploader Status? I didn't see how many torrents was necessary for music uploaders. If not, no big deal. I'll continue doing my thing.

BeerKey Torrents
Soup avatar
Posted: Mon Sep 26, 2016 20:39
Author: ModeratorET loverSupermanSunTurtle
BeerKey wrote:
I am wondering if I am eligible for Trusted Uploader Status? I didn't see how many torrents was necessary for music uploaders. If not, no big deal. I'll continue doing my thing.

BeerKey Torrents
Done, keep up the good work
DJ_Doomsday avatar
Posted: Fri Sep 30, 2016 17:23
Author: Trusted Uploader
dear staff,
I would like to be considered for trusted uploader status.
YoGi avatar
Posted: Fri Sep 30, 2016 18:23
Author: Admin
DJ_Doomsday wrote:
dear staff,
I would like to be considered for trusted uploader status.

Get to 30 torrents and post back here
Rebel_Time_Start_Now avatar
Posted: Fri Sep 30, 2016 23:30
Author:
plz verify my account
Mulva1989 avatar
Posted: Sat Oct 01, 2016 01:37
Author: Trusted UploaderSite FriendET junkieET loverGirl
Rebel_Time_Start_Now wrote:
plz verify my account
You can't apply for trusted uploader directly.. You first have to start out as trial uploader, for which you can apply here : http://extratorrent.cc/forum/topic/24326/trial+uploader+status.html.

Please read the first post before you apply.
JoyBell avatar
Posted: Sat Oct 01, 2016 17:11
Author:
Hello, I am JoyBell.
I will be back in a month to request Trusted status.
Silmarillion avatar
Posted: Sat Oct 01, 2016 17:26
Author: AdminVip MemberBitcoin MasterSun
JoyBell wrote:
Hello, I am JoyBell.
I will be back in a month to request Trusted status.
ok, but for now read and post here
http://extratorrent.cc/forum/topic/24326/trial+uploader+status.html
No avatar
Posted: Thu Oct 06, 2016 01:19
Author: Trusted Uploader
Dear staff,

Just wondering if this is the appropriate time to request trusted status.

Thanks.
800xl avatar
Posted: Fri Oct 21, 2016 11:57
Author: Verified UploaderET junkie
Hi I'd like to be considered for trusted uploader, I dont have 25 torrent yet, but I have uploaded way more than 15gb and do my best to upload new content, not the same old stuff, If not thats cool just tell me what I need to qualify and I appreciate being a uploader/ being part of the community at et.
[Prev]  1, 2, 3, 4, 5 ... 193, 194, 195 ... 203, 204  [Next]
Page 194 of 204   [ 3057 posts ]

Post a Reply    

Forum Search


  search in post message
  search in topic subject
Forum


Home - Browse Torrents - Upload Torrent - Stat - Forum - FAQ - Login
ExtraTorrent.cc is in compliance with copyrights
Can't load ExtraTorrent? Try our official mirrors: etmirror.com - etproxy.com - extratorrentonline.com - extratorrentlive.com
2006-2017 ExtraTorrent.cc5