ExtraTorrent.cc - The Largest Bittorent SystemLogin   |   Register
Latest Articles
Most searched
Hot torrents
First Cams
View Torrent Info: Beauty and The Beast 2017 HD-TS x264-CPG
View Torrent Info: Kong.Skull.Island.2017.CAM.XviD-VAiN
View Torrent Info: The Shack 2017 HDCAM x264-iMLEAVING
View Torrent Info: T2.Trainspotting.2017.CAM.XViD-ETRG
Hot torrents
XVID DIVX
View Torrent Info: We.Dont.Belong.Here.2017.DVDRip.XviD.AC3-EVO
View Torrent Info: From.a.House.on.Willow.Street.2016.HDRip.XviD.AC3-EVO
View Torrent Info: The.Space.Between.Us.2017.HC.HDRip.XViD.AC3-ETRG
View Torrent Info: Walk.of.Fame.2017.HDRip.XviD.AC3-EVO
Hot torrents
H264 X264
View Torrent Info: Hidden.Figures.2016.720p.BRRip.x264.AAC-ETRG
View Torrent Info: Split.2016.FULL.NEW.SOURCE.1080p.HC.HDTV.x264.AAC-SHOWSCEN
View Torrent Info: Paterson.2016.720p.BRRip.x264.AAC-ETRG
View Torrent Info: Dont.Kill.It.2016.720p.BRRip.x264.AAC-ETRG
Hot torrents
BluRay, 4k UHD
View Torrent Info: The.Chamber.2016.BluRay.1080p.x264.DTSHD5.1-DDR
View Torrent Info: Gladiator 2000 Paramount Re-Issue Blu-ray 1080p x264 DTSHD 5.1 -DDR
View Torrent Info: Resident Evil The Final Chapter 2016 Multi 1080pBluRay x264 DTSHD 7.1 -DDR
View Torrent Info: Hidden.Figures.2016.1080p.BluRay.x264-GECKOS[EtHD]
Hot torrents
Television
View Torrent Info: The.Originals.S04E02.HDTV.x264-KILLERS[ettv]
View Torrent Info: The.Blacklist.Redemption.S01E05.HDTV.x264-KILLERS[ettv]
View Torrent Info: The.Last.Kingdom.S02E02.HDTV.x264-MTB[ettv]
View Torrent Info: Greys.Anatomy.S13E17.HDTV.x264-LOL[ettv]
View Torrent Info: The Salesman (Forushande) 2016 Multi 1080p Blu-ray x264 DTSHD 5.1 MSubs-DDR
View Torrent Info: GANTZ:0 2016 BluRay 1080p x264 JPN DTSHD 5.1 ESub-DDR
View Torrent Info: Pandora.2016.HDRip.XviD.AC3-EVO
View Torrent Info: Hidden Figures (2016) 720p BRRip Hindi DD 5.1Ch - Eng DD 5.1Ch ~ PyZ
30s
Chat
To add new messages please Login or Register for FREE
Warning! Protect Yourself from Lawsuits and Fines!
Your IP Address is 54.211.127.89.   Location is United States
Your IP Address is visible to EVERYONE. Hide your IP ADDRESS with a VPN while torrenting!
ExtraTorrent strongly recommends using Trust.Zone VPN to anonymize your torrenting. It's FREE!
Hide my IP address!


Ques. Ref. Information To Supply


Post a Reply    Subscribe to Topic    
AuthorMessage
E_Warrior avatar
Posted: Sat Jan 15, 2011 11:53
Author:
In Description. Is it best to supply all information as i have been doing or would it be best to supply a limited amount to save space and time.
I.E. General : Beach Boys Plays\California_Girls.mpg
Format : MPEG-PS at 1 742 Kbps
Length : 38.6 MiB for 3mn 5s 832ms

Video #0 : MPEG Video at 1 500 Kbps
Aspect : 352 x 288 (1.304) at 25.000 fps

Audio #0 : MPEG Audio at 224 Kbps
Infos : 2 channels, 48.0 KHz
I have been doing it like.
Video
ID : 224 (0xE0)
Format : MPEG Video
Format version : Version 1
Format settings, BVOP : Yes
Format settings, Matrix : Default
Duration : 3mn 5s
Bit rate mode : Constant
Bit rate : 1 500 Kbps
Width : 352 pixels
Height : 288 pixels
Display aspect ratio : 4:3
Frame rate : 25.000 fps
Standard : PAL
Color space : YUV
Bit depth : 8 bits
Scan type : Progressive
Compression mode : Lossy
Bits/(Pixel*Frame) : 0.592
Stream size : 32.8 MiB (85%)

Audio
ID : 192 (0xC0)
Format : MPEG Audio
Format version : Version 1
Format profile : Layer 2
Duration : 3mn 5s
Bit rate mode : Constant
Bit rate : 224 Kbps
Channel(s) : 2 channels
Sampling rate : 48.0 KHz
Compression mode : Lossy
Stream size : 4.96 MiB (13%)

Any help would be appricated
XxGoLDxX avatar
Posted: Sat Jan 15, 2011 12:01
Author:
As you wish dear, its up to you,there are no limitations as per i know
Big_A_Little_A avatar
Posted: Sat Jan 15, 2011 14:36
Author: Site FriendSupermanimmortal
Aye its up to you how much info you wanna put up,I usually canhge the amount slightly for an upload depending on what it is.

If you want to put up all the technical info but feel it takes up to much space then maybe use the spoiler button on the upload page,

Ripping info
General : Beach Boys Plays\California_Girls.mpg
Format : MPEG-PS at 1 742 Kbps
Length : 38.6 MiB for 3mn 5s 832ms

Video #0 : MPEG Video at 1 500 Kbps
Aspect : 352 x 288 (1.304) at 25.000 fps

Audio #0 : MPEG Audio at 224 Kbps
Infos : 2 channels, 48.0 KHz
I have been doing it like.
Video
ID : 224 (0xE0)
Format : MPEG Video
Format version : Version 1
Format settings, BVOP : Yes
Format settings, Matrix : Default
Duration : 3mn 5s
Bit rate mode : Constant
Bit rate : 1 500 Kbps
Width : 352 pixels
Height : 288 pixels
Display aspect ratio : 4:3
Frame rate : 25.000 fps
Standard : PAL
Color space : YUV
Bit depth : 8 bits
Scan type : Progressive
Compression mode : Lossy
Bits/(Pixel*Frame) : 0.592
Stream size : 32.8 MiB (85%)

Audio
ID : 192 (0xC0)
Format : MPEG Audio
Format version : Version 1
Format profile : Layer 2
Duration : 3mn 5s
Bit rate mode : Constant
Bit rate : 224 Kbps
Channel(s) : 2 channels
Sampling rate : 48.0 KHz
Compression mode : Lossy
Stream size : 4.96 MiB (13%)
the spoiler button is located on the top row of buttons on the far right along from font/size/color
E_Warrior avatar
Posted: Sat Jan 15, 2011 14:43
Author:
Thanks to u Both

Post a Reply    

Forum Search


  search in post message
  search in topic subject
Forum


Home - Browse Torrents - Upload Torrent - Stat - Forum - FAQ - Login
ExtraTorrent.cc is in compliance with copyrights
BitCoin: 12DiyqsWhENahDzdhdYsRrCw8FPQVcCkcm
Can't load ExtraTorrent? Try our official mirrors: etmirror.com - etproxy.com - extratorrentonline.com - extratorrentlive.com
2006-2017 ExtraTorrent.cc3