ExtraTorrent.cc - The Largest Bittorent SystemLogin   |   Register
Latest Articles
Most searched
Hot torrents
First Cams
View Torrent Info: Beauty and the Beast 2017 HDCAM 700MB x264-DiRG
View Torrent Info: Kong.Skull.Island.2017.CAM.XviD-VAiN
View Torrent Info: The Shack 2017 HDCAM x264-iMLEAVING
View Torrent Info: T2.Trainspotting.2017.CAM.XViD-ETRG
Hot torrents
XVID DIVX
View Torrent Info: Resident.Evil.The.Final.Chapter.2016.480p.BRRip.XViD.AC3-ETRG
View Torrent Info: Mums.List.2016.HDRip.XViD-ETRG
View Torrent Info: Split.2016.HC.HDRip.XViD.AC3-ETRG
View Torrent Info: Jurassic.School.2017.BRRip.XviD.AC3-EVO
Hot torrents
H264 X264
View Torrent Info: Paterson.2016.720p.BluRay.X264-AMIABLE[EtHD]
View Torrent Info: Dark Skies (2013) 720p BluRay x264 DTS Soup
View Torrent Info: Resident.Evil.The.Final.Chapter.2016.720p.BluRay.X264-AMIABLE[EtHD]
View Torrent Info: Split.2016.1080p.HC.HDRip.X264.AC3-EVO[EtHD]
Hot torrents
BluRay, 4k UHD
View Torrent Info: Sin City 2005 1080p BluRay x264 DTSHD 7.1 Subs -DDR
View Torrent Info: The Uninvited 2009 Multi 1080p Bluray x264 TrueHD 5.1 -DDR
View Torrent Info: Double Team 1997 1080p Bluray x264 DTS 5.1 -DDR
View Torrent Info: Crimson Tide 1995 1080p BluRay x264 DTSHD 5.1 Subs -DDR
Hot torrents
Television
View Torrent Info: Arrow.S05E17.HDTV.x264-LOL[ettv]
View Torrent Info: Survivor.S34E03.HDTV.x264-CROOKS[ettv]
View Torrent Info: Blindspot.S02E16.HDTV.x264-LOL[ettv]
View Torrent Info: Designated.Survivor.S01E13.HDTV.x264-LOL[ettv]
View Torrent Info: Tube (2003) UNCUT 720p DVDRip x264 Eng Subs [Dual Audio] [Hindi 2.0 - Korean 2.0] Exclusive By -=!Dr.STAR!=-
View Torrent Info: Fantastic Beasts and Where to Find Them (2016) 720p BluRay Hindi DD 5.1Ch - Eng DD 5.1Ch ~ PyZ
View Torrent Info: Robin Hood : Prince of Thieves (2009) 720p UNCUT HDRip x264 Eng Subs [Dual Audio] [Hindi DD 2.0 - Malayalam 2.0] Exclusive By -=!Dr.STAR!=-
View Torrent Info: Speed.(1994).1080p.BDRip.Dual.Audio.Org.DD.{Hindi.2.0 Eng.5.1}.-~{DOOMSDAY}~-
30s
Chat
To add new messages please Login or Register for FREE
Warning! Protect Yourself from Lawsuits and Fines!
Your IP Address is 54.157.210.33.   Location is United States
Your IP Address is visible to EVERYONE. Hide your IP ADDRESS with a VPN while torrenting!
ExtraTorrent strongly recommends using Trust.Zone VPN to anonymize your torrenting. It's FREE!
Hide my IP address!


[Tutorial] How to Spot Fake movies with MediaInfo


Post a Reply    Subscribe to Topic    
AuthorMessage
sunDox avatar
Posted: Sun Jul 03, 2011 23:23
Author: Site Friend
Just downloaded a movie, and it want you to download some codecs.
DONT download the codecs..
You want to be sure the movie is real before you finish your download.
You can use this Tutorial from 2% (sometimes before and sometimes later)

First you need MediaInfo can be Download Here

How to recognize without downloading whole file:

Using uTorrent: under advanced , set bt.prio_first_last_piece to *true
48207718686455135786.jpg

Select only the main movie to download.

Start download and wait for piece 0 to download complete.

( Note if there is a "sample" or other sizable file in the folder you may
need to calculate which is the first piece, it may not be 0, but usually is)

Stop the download.

Open the download folder and find the file.

It will prolly be an .avi file.

Open it with mediainfo. Mediainfo will most likely tell you something like this:

General
Complete name : FILENAME.avi
File size : 1 015 MiB
Application : Windows Movie Maker 2.1.4028.0

Already you see the scam, there is no valid reason to rename a WMV file and call it .avi

Now play the movie with VLC or Media Player Classic and you will see something like this:

54106950309100844504.png
34845131380030632339.png

With this variant playing it with Windows Media Player as directed will go to a dead end or to a website
inviting you to pay for a playvix or similar codec. It won't work !


Here is another variant sending you to a fake site:

14850992952201434095.png

If it is a DRM (digital rights movie) you will see something like this when playing with Windows Media Player:

09564672618077706079.png

you need to start the download and when you get around 2-3% open the containing folder and right click and hit media info if you have it installed and you'll get this see the red highlighted info of the first one compare it to the second one and to see the redirect play it and you'll see the redirect and codec error.

General
Complete name : Harry Potter The Half Blood Prince TS XVID-STG(No Rars).avi
Format : Windows Media
File size : 1 015 MiB
Duration : 19s 539ms
Overall bit rate mode : Constant
Overall bit rate : 436 Mbps
Maximum Overall bit rate : 1 516 Kbps
Encoded date : UTC 2009-06-15 05:30:33.359
Application : Windows Movie Maker 2.1.4026.0
Video
ID : 2
Format : VC-1
Format profile : [email protected]
Codec ID : WMV3
Codec ID/Info : Windows Media Video 9
Codec ID/Hint : WMV3
Description of the codec : Windows Media Video 9 - Professional
Duration : 19s 533ms
Bit rate mode : Constant
Bit rate : 1 372 Kbps
Width : 640 pixels
Height : 480 pixels
Display aspect ratio : 4/3
Frame rate : 30.000 fps
Resolution : 24 bits
Scan type : Progressive
Bits/(Pixel*Frame) : 0.149
Stream size : 3.19 MiB (0%)
Language : en-us
Audio
ID : 1
Format : WMA2
Format profile : L1
Codec ID : 161
Codec ID/Info : Windows Media Audio 2
Description of the codec : Windows Media Audio 9 - 128 kbps, 44 kHz, stereo (A/V) 1-pass CBR
Duration : 19s 539ms
Bit rate mode : Constant
Bit rate : 128 Kbps
Channel(s) : 2 channels
Sampling rate : 44.1 KHz
Resolution : 16 bits
Stream size : 305 KiB (0%)
Language : en-us
====================================================================================================
General
Complete name : The Others (2001)
Format : AVI
Format/Info : Audio Video Interleave
File size : 700 MiB
Duration : 1h 39mn
Overall bit rate : 979 Kbps
Writing application : VirtualDubMod 1.5.4.1 (build 2178/release)
Writing library : VirtualDubMod build 2178/release
Video
ID : 0
Format : MPEG-4 Visual
Format settings, BVOP : Yes
Format settings, QPel : No
Format settings, GMC : No warppoints
Format settings, Matrix : Default (H.263)
Muxing mode : Packed bitstream
Codec ID : DX50
Codec ID/Hint : DivX 5
Duration : 1h 39mn
Bit rate : 852 Kbps
Width : 640 pixels
Height : 368 pixels
Display aspect ratio : 16/9
Frame rate : 25.000 fps
Resolution : 24 bits
Colorimetry : 4:2:0
Scan type : Progressive
Bits/(Pixel*Frame) : 0.145
Stream size : 609 MiB (87%)
Writing library : DivX 6.6.1.4
Audio
ID : 1
Format : MPEG Audio
Format version : Version 1
Format profile : Layer 3
Codec ID : 55
Codec ID/Hint : MP3
Duration : 1h 39mn
Bit rate mode : Variable
Bit rate : 115 Kbps
Nominal bit rate : 128 Kbps
Channel(s) : 2 channels
Sampling rate : 48.0 KHz
Resolution : 16 bits
Stream size : 81.9 MiB (12%)
Alignment : Aligned on interleaves
Interleave, duration : 24 ms (0.60 video frame)
Interleave, preload duration : 160 ms
Writing library : LAME3.97
Encoding settings : -m j -V 4 -q 2 -lowpass 17 --abr 128
No avatar
Posted: Tue Jul 05, 2011 14:08
Author: Blocked
very nice tutorial will come in handy for alot of ppl
TIMETHIEF_121 avatar
Posted: Wed Aug 03, 2011 06:04
Author: Blocked
thnxx a lot!! i needed this!! :)
prisak avatar
Posted: Thu Aug 04, 2011 04:21
Author: Trusted UploaderSite FriendET loverSuperman
Thx Very Helpful Tutorial. Very Easy to find fake Movie..
Big_A_Little_A avatar
Posted: Thu Aug 04, 2011 09:10
Author: Site FriendSupermanimmortal
Also when using media info a few thing to look at to help spot fakes


25424888662944374429.jpg

Post a Reply    

Forum Search


  search in post message
  search in topic subject
Forum


Home - Browse Torrents - Upload Torrent - Stat - Forum - FAQ - Login
ExtraTorrent.cc is in compliance with copyrights
BitCoin: 12DiyqsWhENahDzdhdYsRrCw8FPQVcCkcm
Can't load ExtraTorrent? Try our official mirrors: etmirror.com - etproxy.com - extratorrentonline.com - extratorrentlive.com
2006-2017 ExtraTorrent.cc3