ExtraTorrent.cc - The Largest Bittorent SystemLogin   |   Register
Latest Articles
Recommend us with Google

Most searched
Hot torrents
First Cams
View Torrent Info: Hitman Agent 47 {2015} NEW HQCAM X264 AC3-MRG
View Torrent Info: Vacation.2015.HD-TS.XVID.AC3.HQ.Hive-CM8
View Torrent Info: Paper Towns {2015} CAM XVID MP3-MRG
View Torrent Info: Fantastic.Four.2015.HD.TS.NEW.VIDEO.XVID-EVE
Hot torrents
XVID DIVX
View Torrent Info: Diamond.Geezers.2015.DVDRip.XViD.AC3-ETRG
View Torrent Info: The.Rise.of.the.Krays.2015.HDRip.XViD.AC3-ETRG
View Torrent Info: Sweet.Home.2015.BDRip.XviD.AC3-EVO
View Torrent Info: Turbo.Kid.2015.HDRip.XviD.AC3-EVO
Hot torrents
H264 X264
View Torrent Info: Furious.Seven.2015.EXTENDED.1080p.BluRay.AC3.x264-ETRG
View Torrent Info: Mad.Max.Fury.Road.2015.BluRay.1080p.AVC.DTS-HD.MA 7.1 x264-ETRG
View Torrent Info: It.Follows.2014.BluRay.720p.DTS.x264-ETRG
View Torrent Info: Broken.Horses.2015.720p.WEB-DL.x264.AAC-ETRG
Hot torrents
Television
View Torrent Info: The Whispers S01E13 HDTV x264-KILLERS[ettv]
View Torrent Info: Chasing Life S02E09 HDTV x264-KILLERS[ettv]
View Torrent Info: Awkward S05E01 HDTV x264-KILLERS[ettv]
View Torrent Info: Faking It 2014 S02E11 HDTV x264-KILLERS[ettv]
View Torrent Info: Bang Bang (2014) HQ 1080p REM Blu-Ray x264 DTS-HDMA GSub [DDR]
View Torrent Info: Insanity.2015.720p.BluRay.x264.Cantonose.AAC-ETRG
View Torrent Info: Jab Tak Hai Jaan (2014) 720p mHD REM Blu-Ray x264 Hindi German audio MSubs [DDR]
View Torrent Info: Sesh Anka (2015) - 720p - HDRip - x264 - AC3 - SAP [DDR-ExclusivE]
30s
Chat
To add new messages please Login or Register for FREE


ExtraTorrent.cc > Categories > Movies torrents > Drama torrents


Browse Movies torrents

Eu Me Lembro (2005) Edgard Navarro Br 105 dra DvdRip Filbradown Tor-ipiau avi torrent


Download torrent:Download Eu Me Lembro (2005) Edgard Navarro Br 105 dra DvdRip Filbradown Tor-ipiau avi torrentMagnet linkBookmark Torrent: Eu Me Lembro (2005) Edgard Navarro Br 105 dra DvdRip Filbradown Tor-ipiau aviSend Torrent: Eu Me Lembro (2005) Edgard Navarro Br 105 dra DvdRip Filbradown Tor-ipiau avi Eu Me Lembro (2005) Edgard Navarro Br 105 dra DvdRip Filbradown Tor-ipiau avi torrent
Info hash:931804A40BE59AE94AF115649852A234A03B7CA9
Category:Categories > Movies torrents > Drama torrents
Trackers:
10   View all torrent trackers >
Seeds:---Update seeds and leechers stat
Leechers:---
Health:
Total Size:700.72 MB
Number of files:
1   View torrent files >
Torrent added:2009-01-07 04:37:15

Download Eu Me Lembro (2005) Edgard Navarro Br 105 dra DvdRip Filbradown Tor-ipiau avi torrent


Torrent Description
Eu Me Lembro (2005) - Edgard Navarro

[Eu Me Lembro (2005) Edgard Navarro Br 105 dra DvdRip Filbradown Tor-ipiau avi]

--- SINOPSE ---

Eu me Lembro narra a vida de Guiga, um personagem que poderia ser qualquer um que passou da infância à fase adulta entre os anos 50 e 70. Mostra as descobertas sexuais, as aventuras autênticas, as desilusões de um garoto (ou de uma geração) que viveu a maior revolução de costumes do século XX, do movimento hippie à conquista da liberdade pelas mulheres. Ao mesmo tempo, retrata o que foi sonho, exagero, exacerbação de sentimentos.

Ao fundo, o filme relembra a passagem da alegria de crescer em um país que era o do futuro ao desespero de ver um governo autoritário em ação. Os fatos políticos nacionais alteram, de certo modo, o que se passa dentro da casa e da vida do protagonista. Ao mesmo tempo, ele se mantém firme aos seus ideais.
fonte:
http://www.guiadasemana.com.br/film.asp?ID=11&cd_film=1378
---
"Eu me lembro" de Edgar Navarro, obra prima da criação brasileira a altura de um Federico Felini e seu celebrado "Amarcord", "Eu me lembro" tem a magia do gênio italiano, condimentada com tempero baiano: Pimenta na dose certa.
Filme de memórias, lembranças da formação do autor encobertas pelo manto protetor da ficção, o filme é lírico, sarcástico, sacana, poético. Dos melhores filmes já produzidos no Brasil.
por Sílvio Tendler, in: http://terramagazine.terra.com.br/interna/0,,OI1305275-EI6623,00-Eu+Me+lembro+um+Amarcord+brasileiro.html

---

--- Ficha Técnica ---
Título Original: Eu Me Lembro
Gênero: Drama
Tempo de Duração: 108 minutos
Ano de Lançamento (Brasil): 2006
Estúdio:
Distribuição: Pandora Filmes
Direção: Edgard Navarro
Roteiro: Edgard Navarro
Produção: Sylvia Abreu e Moisés Augusto
Música: Tuzé Abreu
Fotografia: Hamilton Oliveira
Direção de Arte: Moacyr Gramacho e Shell Jr.
Edição: Jefferson Cysneiros

---

Eu Me Lembro (2005).Edgard Navarro.Br.105.dra.DvdRip.Filbradown.Tor-ipiau.avi
Format : AVI
Format/Info : Audio Video Interleave
File size : 701 MiB
Duration : 1h 44mn
Overall bit rate : 936 Kbps

Video
Format : MPEG-4 Visual
Format settings, BVOP : Yes
Format settings, QPel : No
Format settings, GMC : No warppoints
Format settings, Matrix : Default
Codec ID : XVID
Codec ID/Hint : XviD
Duration : 1h 44mn
Bit rate : 794 Kbps
Width : 640 pixels
Height : 352 pixels
Display aspect ratio : 16/9
Frame rate : 29.971 fps
Resolution : 24 bits
Scan type : Progressive
Bits/(Pixel*Frame) : 0.118
Stream size : 594 MiB (85%)

Audio
Format : MPEG Audio
Format version : Version 1
Format profile : Layer 3
Codec ID : 55
Codec ID/Hint : MP3
Bit rate mode : Constant
Bit rate : 128 Kbps
Channel(s) : 2 channels
Sampling rate : 48.0 KHz
Resolution : 16 bits
Stream size : 95.9 MiB (14%)
Alignment : Split accross interleaves
Interleave, duration : 24 ms (0.72 video frame)

Download Eu Me Lembro (2005) Edgard Navarro Br 105 dra DvdRip Filbradown Tor-ipiau avi torrent


Comments (please add your comment)
No comments


Recent Searches

veep S05E01     ETTV     adult     software     kids learning     nl     Midnight Show (2016)     tool band     kai workout     ETRG     no escape 2015     rnb mix 2014     Jemiyah Jones & the Vampyre Ghost Ship (2016)     The Kid 2000     Avatar 2 (2017)     Silicon valley s03e01     inception     dvd     orphan black s04e01     anime     music     new americana halsey     neyo     falling skies s05e08     porn     masters of sex season     shakira cant remember to forget you     Stella Cox     p sqaure chop my money no beat     She's Kinda Hot     dru hill     Ninjago: Masters of Spinjitzu S05E12     Diners, Drive-ins and Dives S00E31     days of our lives     Much Ado About Nothing     los caporales de chihuahua     cha cha dram     the good wife season6     nicki pill and potion     wwe     TeensDoPorn anal     sex     hussyfan     minion     the weeknd     My Haunted House S00E07     memorama allison     marvin sapp     YIFY     Tearful Surrender (2017)     The Last Contact (2016)     house of cards s03e02     Koyakatsi (2016)     keyshia cole     tidal waves by julie anne san jose     Super Smash Bros 3DS [J]     movie     orange is the new black s04e01     suits s03     Unity, Guardians Versus Corruption: Rise of the Co     thomas rhett     DDR     



Home - Browse Torrents - Upload Torrent - Stat - Forum - FAQ - Torrent sitemap - Login
ExtraTorrent.cc is in compliance with copyrights
BitCoin: 1XeH1kKXWYbzZcFHokGiZ4d3MWW5WyXzU
2006-2015 ExtraTorrent.cc