ExtraTorrent.cc - The Largest Bittorent SystemLogin   |   Register
Latest Articles
Recommend us with Google

Most searched
Hot torrents
First Cams
View Torrent Info: Jupiter Ascending 2015 HDCAM x264 AAC-CPG
View Torrent Info: Kingsman-The.Secret.Service.2014.HDCAM.XVID.AC3.HQ.Hive-CM8
View Torrent Info: Dragon.Blade.2015.CAM.x264-CM8
View Torrent Info: Seventh Son (2014) TS READNFO x264 LiNE Audio-CPG
Hot torrents
XVID DIVX
View Torrent Info: Hayride.2.2015.HDRip.XViD-juggs[ETRG]
View Torrent Info: Kidnapping.Mr.Heineken.2015.HDRip.XViD-juggs[ETRG]
View Torrent Info: Faults.2014.HDRip.XviD.AC3-EVO
View Torrent Info: XY.2014.HDRip.XviD.AC3-EVO
Hot torrents
H264 X264
View Torrent Info: Hayride.2.2015.720p.WEB-DL.x264[ETRG]
View Torrent Info: Bad Asses On the Bayou.2015.720p.WEB-DL.x264[ETRG]
View Torrent Info: Northmen.A.Viking.Saga.2014.1080p.BluRay.AC3.x264-tomcat12[ETRG]
View Torrent Info: The.Pyramid.2014.720p.WEB-DL.x264[ETRG]
Hot torrents
Television
View Torrent Info: 12 Monkeys S01E08 HDTV x264-KILLERS[ettv]
View Torrent Info: Hawaii Five-0 2010 S05E18 HDTV x264-LOL[ettv]
View Torrent Info: The Musketeers 2x08 The Prodigal Son HDTV x264-FoV[ettv]
View Torrent Info: Glee S06E10 HDTV x264-KILLERS[ettv]
View Torrent Info: Barbie.in.Princess.Power.2015.720p.BluRay.AC3.x264.Greek-tomcat12[ETRG]
View Torrent Info: Penguins.of.Madagascar.2014.720p.BluRay.AC3.x264.Greek-tomcat12[ETRG]
View Torrent Info: Ugly (2014) - BDRip - x264 - AAC [DDR]
View Torrent Info: Yevadu (2014) | m-HD | 720p | Hindi | Telugu | BHATTI87
30s
Chat
To add new messages please Login or Register for FREE


ExtraTorrent.cc > Categories > Movies torrents > Drama torrents


Browse Movies torrents

Eu Me Lembro (2005) Edgard Navarro Br 105 dra DvdRip Filbradown Tor-ipiau avi torrent


Download torrent:Download Eu Me Lembro (2005) Edgard Navarro Br 105 dra DvdRip Filbradown Tor-ipiau avi torrentMagnet linkBookmark Torrent: Eu Me Lembro (2005) Edgard Navarro Br 105 dra DvdRip Filbradown Tor-ipiau aviSend Torrent: Eu Me Lembro (2005) Edgard Navarro Br 105 dra DvdRip Filbradown Tor-ipiau avi Eu Me Lembro (2005) Edgard Navarro Br 105 dra DvdRip Filbradown Tor-ipiau avi torrent
Direct Download: DOWNLOAD Torrent - no client needed
Info hash:931804A40BE59AE94AF115649852A234A03B7CA9
Category:Categories > Movies torrents > Drama torrents
Trackers:
10   View all torrent trackers >
Seeds:---Update seeds and leechers stat
Leechers:---
Health:
Total Size:700.72 MB
Number of files:
1   View torrent files >
Torrent added:2009-01-07 04:37:15

Download Eu Me Lembro (2005) Edgard Navarro Br 105 dra DvdRip Filbradown Tor-ipiau avi torrentDownload


Torrent Description
Eu Me Lembro (2005) - Edgard Navarro

[Eu Me Lembro (2005) Edgard Navarro Br 105 dra DvdRip Filbradown Tor-ipiau avi]

--- SINOPSE ---

Eu me Lembro narra a vida de Guiga, um personagem que poderia ser qualquer um que passou da infância à fase adulta entre os anos 50 e 70. Mostra as descobertas sexuais, as aventuras autênticas, as desilusões de um garoto (ou de uma geração) que viveu a maior revolução de costumes do século XX, do movimento hippie à conquista da liberdade pelas mulheres. Ao mesmo tempo, retrata o que foi sonho, exagero, exacerbação de sentimentos.

Ao fundo, o filme relembra a passagem da alegria de crescer em um país que era o do futuro ao desespero de ver um governo autoritário em ação. Os fatos políticos nacionais alteram, de certo modo, o que se passa dentro da casa e da vida do protagonista. Ao mesmo tempo, ele se mantém firme aos seus ideais.
fonte:
http://www.guiadasemana.com.br/film.asp?ID=11&cd_film=1378
---
"Eu me lembro" de Edgar Navarro, obra prima da criação brasileira a altura de um Federico Felini e seu celebrado "Amarcord", "Eu me lembro" tem a magia do gênio italiano, condimentada com tempero baiano: Pimenta na dose certa.
Filme de memórias, lembranças da formação do autor encobertas pelo manto protetor da ficção, o filme é lírico, sarcástico, sacana, poético. Dos melhores filmes já produzidos no Brasil.
por Sílvio Tendler, in: http://terramagazine.terra.com.br/interna/0,,OI1305275-EI6623,00-Eu+Me+lembro+um+Amarcord+brasileiro.html

---

--- Ficha Técnica ---
Título Original: Eu Me Lembro
Gênero: Drama
Tempo de Duração: 108 minutos
Ano de Lançamento (Brasil): 2006
Estúdio:
Distribuição: Pandora Filmes
Direção: Edgard Navarro
Roteiro: Edgard Navarro
Produção: Sylvia Abreu e Moisés Augusto
Música: Tuzé Abreu
Fotografia: Hamilton Oliveira
Direção de Arte: Moacyr Gramacho e Shell Jr.
Edição: Jefferson Cysneiros

---

Eu Me Lembro (2005).Edgard Navarro.Br.105.dra.DvdRip.Filbradown.Tor-ipiau.avi
Format : AVI
Format/Info : Audio Video Interleave
File size : 701 MiB
Duration : 1h 44mn
Overall bit rate : 936 Kbps

Video
Format : MPEG-4 Visual
Format settings, BVOP : Yes
Format settings, QPel : No
Format settings, GMC : No warppoints
Format settings, Matrix : Default
Codec ID : XVID
Codec ID/Hint : XviD
Duration : 1h 44mn
Bit rate : 794 Kbps
Width : 640 pixels
Height : 352 pixels
Display aspect ratio : 16/9
Frame rate : 29.971 fps
Resolution : 24 bits
Scan type : Progressive
Bits/(Pixel*Frame) : 0.118
Stream size : 594 MiB (85%)

Audio
Format : MPEG Audio
Format version : Version 1
Format profile : Layer 3
Codec ID : 55
Codec ID/Hint : MP3
Bit rate mode : Constant
Bit rate : 128 Kbps
Channel(s) : 2 channels
Sampling rate : 48.0 KHz
Resolution : 16 bits
Stream size : 95.9 MiB (14%)
Alignment : Split accross interleaves
Interleave, duration : 24 ms (0.72 video frame)

Download Eu Me Lembro (2005) Edgard Navarro Br 105 dra DvdRip Filbradown Tor-ipiau avi torrentDownload


Comments (please add your comment)
No comments


Recent Searches

software     yo gotti new album download     music     r&B mixtapes 2015     sonido mazter mereces mas     kamsutra     lil wayne     coffee bloom     YIFY     kendrick lamar swimming pools drake     stalker season 1     el papel cambio con komander     the 100 season 2     adult     earned it the weekend     anime     loco mc magic ft c-kan     movie     DDR     la bamba     تنها نخواهم ماند     right back dj drama     i want you to know     the heptones cool rasta mp3     แยกกันเดินเพราะเกินทน     dvd     High Road to China     Bang bus     december 4th jay z     SHAMELESS S05E03     lmfao     penguings of madagascar     czechcasting     X-Art - Mary Multiple Orgasms     the one new love     Lang Tong movie     Nicki Minaj     yeng constantino songs     movies     lucy spraggan join     kanye west my dark twisted fantasy     ETTV     jade nile     sex     porn     royalettes     the weeknd     recovery     DCI Banks S04E01     telugu     the walking Dead s05e12     since youve been gone     castingcouch-x     la quinta estacion recuerdame     ETRG     x men days of future past     spooksville s02e01     Pussy Party compilation     strange magic     la concentracion     jgivens     scandal     



Home - Browse Torrents - Upload Torrent - Stat - Forum - FAQ - Torrent sitemap - Login
ExtraTorrent.cc is in compliance with copyrights
BitCoin: 1XeH1kKXWYbzZcFHokGiZ4d3MWW5WyXzU
2006-2015 ExtraTorrent.cc