ExtraTorrent.cc - The Largest Bittorent SystemLogin   |   Register
Latest Articles
Recommend us with Google

Most searched
Hot torrents
First Cams
View Torrent Info: Avengers Age of Ultron 2015 CAM x264 AC3 TiTAN
View Torrent Info: Fast.And.Furious.7.2015.TS.XViD NO1KNOWS
View Torrent Info: The Gunman 2015 HDCAM x264 - CPG
View Torrent Info: Chappie 2015 HDCAM New AUDIO x264-CPG
Hot torrents
XVID DIVX
View Torrent Info: The.DUFF.2015.HDRip.XviD.AC3-EVO
View Torrent Info: Still.Alice.2014.BRRip.XViD-ETRG
View Torrent Info: Fifty.Shades.of.Grey.2015.UNRATED.BRRip.XviD-ETRG
View Torrent Info: Adult.Beginners.2015.HDRip.XviD.AC3-EVO
Hot torrents
H264 X264
View Torrent Info: Seventh.Son.2014.1080p.BluRay.DTS.x264-ETRG
View Torrent Info: The.Forger.2014.1080p.Bluray.DTS.x264-ETRG
View Torrent Info: Paddington.2014.BluRay.1080p.AVC.DTS-HD.MA 5.1 x264-MgB [ETRG]
View Torrent Info: Everly.2014.BluRay.720p.DTS.x264-MgB [ETRG]
Hot torrents
Television
View Torrent Info: Atlantis 2013 2x09 The Gorgons Gaze HDTV x264-FoV[ettv]
View Torrent Info: The Messengers 2015 S01E02 HDTV x264-2HD[ettv]
View Torrent Info: Grimm S04E19 HDTV x264-LOL[ettv]
View Torrent Info: Wayward Pines S01E01 HDTV x264-2HD[ettv]
View Torrent Info: ROY *2015* 1080p - mHD - x264 - ESub [DDR-ExCluSivE]
View Torrent Info: Crossing.Bridges-Shertupken-DVD.Rip-HEVC-x265.AAC.Esubs-1CD-[DDR]
View Torrent Info: Jal (Water) (2014)-DVD.Rip-HEVC-x265.AAC.Esubs-700MB-[DDR]
View Torrent Info: Asterix.The.Mansions.of.the.Gods.2014.1080p.BluRay.AC3.x264.Greek-ETRG
30s
Chat
To add new messages please Login or Register for FREE


ExtraTorrent.cc > Categories > Movies torrents > Drama torrents


Browse Movies torrents

Eu Me Lembro (2005) Edgard Navarro Br 105 dra DvdRip Filbradown Tor-ipiau avi torrent


Download torrent:Download Eu Me Lembro (2005) Edgard Navarro Br 105 dra DvdRip Filbradown Tor-ipiau avi torrentMagnet linkBookmark Torrent: Eu Me Lembro (2005) Edgard Navarro Br 105 dra DvdRip Filbradown Tor-ipiau aviSend Torrent: Eu Me Lembro (2005) Edgard Navarro Br 105 dra DvdRip Filbradown Tor-ipiau avi Eu Me Lembro (2005) Edgard Navarro Br 105 dra DvdRip Filbradown Tor-ipiau avi torrent
Direct Download:
Info hash:931804A40BE59AE94AF115649852A234A03B7CA9
Category:Categories > Movies torrents > Drama torrents
Trackers:
10   View all torrent trackers >
Seeds:---Update seeds and leechers stat
Leechers:---
Health:
Total Size:700.72 MB
Number of files:
1   View torrent files >
Torrent added:2009-01-07 04:37:15

Download Eu Me Lembro (2005) Edgard Navarro Br 105 dra DvdRip Filbradown Tor-ipiau avi torrent


Torrent Description
Eu Me Lembro (2005) - Edgard Navarro

[Eu Me Lembro (2005) Edgard Navarro Br 105 dra DvdRip Filbradown Tor-ipiau avi]

--- SINOPSE ---

Eu me Lembro narra a vida de Guiga, um personagem que poderia ser qualquer um que passou da infância à fase adulta entre os anos 50 e 70. Mostra as descobertas sexuais, as aventuras autênticas, as desilusões de um garoto (ou de uma geração) que viveu a maior revolução de costumes do século XX, do movimento hippie à conquista da liberdade pelas mulheres. Ao mesmo tempo, retrata o que foi sonho, exagero, exacerbação de sentimentos.

Ao fundo, o filme relembra a passagem da alegria de crescer em um país que era o do futuro ao desespero de ver um governo autoritário em ação. Os fatos políticos nacionais alteram, de certo modo, o que se passa dentro da casa e da vida do protagonista. Ao mesmo tempo, ele se mantém firme aos seus ideais.
fonte:
http://www.guiadasemana.com.br/film.asp?ID=11&cd_film=1378
---
"Eu me lembro" de Edgar Navarro, obra prima da criação brasileira a altura de um Federico Felini e seu celebrado "Amarcord", "Eu me lembro" tem a magia do gênio italiano, condimentada com tempero baiano: Pimenta na dose certa.
Filme de memórias, lembranças da formação do autor encobertas pelo manto protetor da ficção, o filme é lírico, sarcástico, sacana, poético. Dos melhores filmes já produzidos no Brasil.
por Sílvio Tendler, in: http://terramagazine.terra.com.br/interna/0,,OI1305275-EI6623,00-Eu+Me+lembro+um+Amarcord+brasileiro.html

---

--- Ficha Técnica ---
Título Original: Eu Me Lembro
Gênero: Drama
Tempo de Duração: 108 minutos
Ano de Lançamento (Brasil): 2006
Estúdio:
Distribuição: Pandora Filmes
Direção: Edgard Navarro
Roteiro: Edgard Navarro
Produção: Sylvia Abreu e Moisés Augusto
Música: Tuzé Abreu
Fotografia: Hamilton Oliveira
Direção de Arte: Moacyr Gramacho e Shell Jr.
Edição: Jefferson Cysneiros

---

Eu Me Lembro (2005).Edgard Navarro.Br.105.dra.DvdRip.Filbradown.Tor-ipiau.avi
Format : AVI
Format/Info : Audio Video Interleave
File size : 701 MiB
Duration : 1h 44mn
Overall bit rate : 936 Kbps

Video
Format : MPEG-4 Visual
Format settings, BVOP : Yes
Format settings, QPel : No
Format settings, GMC : No warppoints
Format settings, Matrix : Default
Codec ID : XVID
Codec ID/Hint : XviD
Duration : 1h 44mn
Bit rate : 794 Kbps
Width : 640 pixels
Height : 352 pixels
Display aspect ratio : 16/9
Frame rate : 29.971 fps
Resolution : 24 bits
Scan type : Progressive
Bits/(Pixel*Frame) : 0.118
Stream size : 594 MiB (85%)

Audio
Format : MPEG Audio
Format version : Version 1
Format profile : Layer 3
Codec ID : 55
Codec ID/Hint : MP3
Bit rate mode : Constant
Bit rate : 128 Kbps
Channel(s) : 2 channels
Sampling rate : 48.0 KHz
Resolution : 16 bits
Stream size : 95.9 MiB (14%)
Alignment : Split accross interleaves
Interleave, duration : 24 ms (0.72 video frame)

Download Eu Me Lembro (2005) Edgard Navarro Br 105 dra DvdRip Filbradown Tor-ipiau avi torrent


Comments (please add your comment)
No comments


Recent Searches

YIFY     auburn deep     anime     you make me feel     southern soul music     trey songz     hed pe     sex     the four 2012 eng sub     dvd     mark tremonti     ludacris ludaversal     butter truffle lil eay     Redheads Are Sexy 5     wreck it ralph     music     brooklyn nine s02e17 hdtv x264 lol ettv     lil wayne     star wars episode 2     animated rock movies     new dancehall mix 2015     bianca breeze     porn     lucy schwartz when we were young     north pole peter north     girl crush little big town     eros ramazzotti     Like dat chopped and acrewed     tlc     salted wound     TURN DOWN FOR WUHT     Grand.Theft.Auto.V     rio roma     tink treat me like somebody     software     movie     private show ti     paul blart     #thesoulstirrers christ is all     destra garcia     Last Knights     nicki minaj blow some more     you belong with me taylor swift     ETTV     enrique iglesias     no one     wood working     DDR     naruto the last movie     big sean blessed mp3 download     la vie en rose cindy lauper     banshee     k.p. & envyi     movies 2015     Sexy Secretaries     nicky jam     Sam smith     la llamada sergio y estibaliz     american crime     beyonce haunted 50 shades of grey sountrack video     ETRG     adult     



Home - Browse Torrents - Upload Torrent - Stat - Forum - FAQ - Torrent sitemap - Login
ExtraTorrent.cc is in compliance with copyrights
BitCoin: 1XeH1kKXWYbzZcFHokGiZ4d3MWW5WyXzU
2006-2015 ExtraTorrent.cc