ExtraTorrent.cc - The Largest Bittorent SystemLogin   |   Register
ExtraTorrent.cc
Important Information
ExtraTorrent.cc
Please pay attention
We moved to new domain EXTRATORRENT.CC
More information comming soon...

Latest Articles
Recommend us with Google

Most searched
Hot torrents
First Cams
View Torrent Info: A Haunted House 2 2014 CAM XVID AC3-EVE
View Torrent Info: Captain America The Winter Soldier 2014 TS XviD MP3 MiLLENiUM
View Torrent Info: The Amazing Spiderman 2 2014 3D CAM V1 READNFO XVID-EVE
View Torrent Info: Sabotage 2014 CAM NEWSOURCE XVID-EVE
Hot torrents
XVID DIVX
View Torrent Info: Kid Cannabis [2014] HDRip XviD-SaM[ETRG]
View Torrent Info: Small Time [2013] HDRip XviD-SaM[ETRG]
View Torrent Info: Pup [2013] BRRip XviD-SaM[ETRG]
View Torrent Info: Favor [2013] HDRip XViD juggs[ETRG]
Hot torrents
H264 X264
View Torrent Info: Serenity [2005] 1080p BluRay AAC x264-tomcat12[ETRG]
View Torrent Info: War 2007 BluRay 720p AC3 x264-3Li [ETRG]
View Torrent Info: Dom Hemingway [2013] 1080p BluRay AAC x264-tomcat12[ETRG]
View Torrent Info: Valkyrie 2008 BluRay 720p AC3 x264-3Li [ETRG]
Hot torrents
Television
View Torrent Info: Reign S01E19 HDTV x264-2HD[ettv]
View Torrent Info: The Americans 2013 S02E09 HDTV x264-2HD[ettv]
View Torrent Info: Arrow S02E20 HDTV x264-LOL[ettv]
View Torrent Info: The 100 S01E06 HDTV x264-2HD[ettv]
View Torrent Info: Sweet Alibis[2014]BRRip XviD[Chinese]-SaM[ETRG]
View Torrent Info: Insidious Chapter 2 (2013) 720p Blu-Ray x264 [Dual-Audio] [English DD 5.1   Hindi DD 2.1] - Mafiaking - [D3Si MaNiaCs]
View Torrent Info: Scream 4 (2011) BRRip 720p x264 [Dual Audio][448 Kbps] [Hindi 5.1 English 5.1]--prisak~~{HKRG}
View Torrent Info: The Truman Show (1998) | m-HD | 720p | Hindi | Eng | BHATTI87
30s
Chat
To add new messages please Login or Register for FREE
novalayer

BetExpert.me sport tips

ExtraTorrent.cc > Categories > Movies torrents > Drama torrents


Browse Movies torrents

Eu Me Lembro (2005) Edgard Navarro Br 105 dra DvdRip Filbradown Tor-ipiau avi torrent


Download torrent:Download Eu Me Lembro (2005) Edgard Navarro Br 105 dra DvdRip Filbradown Tor-ipiau avi torrentMagnet linkBookmark Torrent: Eu Me Lembro (2005) Edgard Navarro Br 105 dra DvdRip Filbradown Tor-ipiau aviSend Torrent: Eu Me Lembro (2005) Edgard Navarro Br 105 dra DvdRip Filbradown Tor-ipiau avi Eu Me Lembro (2005) Edgard Navarro Br 105 dra DvdRip Filbradown Tor-ipiau avi torrent
Direct Download: DOWNLOAD Torrent - no client needed
Info hash:931804A40BE59AE94AF115649852A234A03B7CA9
Category:Categories > Movies torrents > Drama torrents
Trackers:
10   View all torrent trackers >
Seeds:---Update seeds and leechers stat
Leechers:---
Health:
Total Size:700.72 MB
Number of files:
1   View torrent files >
Torrent added:2009-01-07 04:37:15

Download Eu Me Lembro (2005) Edgard Navarro Br 105 dra DvdRip Filbradown Tor-ipiau avi torrentDownload


Torrent Description
Eu Me Lembro (2005) - Edgard Navarro

[Eu Me Lembro (2005) Edgard Navarro Br 105 dra DvdRip Filbradown Tor-ipiau avi]

--- SINOPSE ---

Eu me Lembro narra a vida de Guiga, um personagem que poderia ser qualquer um que passou da infância à fase adulta entre os anos 50 e 70. Mostra as descobertas sexuais, as aventuras autênticas, as desilusões de um garoto (ou de uma geração) que viveu a maior revolução de costumes do século XX, do movimento hippie à conquista da liberdade pelas mulheres. Ao mesmo tempo, retrata o que foi sonho, exagero, exacerbação de sentimentos.

Ao fundo, o filme relembra a passagem da alegria de crescer em um país que era o do futuro ao desespero de ver um governo autoritário em ação. Os fatos políticos nacionais alteram, de certo modo, o que se passa dentro da casa e da vida do protagonista. Ao mesmo tempo, ele se mantém firme aos seus ideais.
fonte:
http://www.guiadasemana.com.br/film.asp?ID=11&cd_film=1378
---
"Eu me lembro" de Edgar Navarro, obra prima da criação brasileira a altura de um Federico Felini e seu celebrado "Amarcord", "Eu me lembro" tem a magia do gênio italiano, condimentada com tempero baiano: Pimenta na dose certa.
Filme de memórias, lembranças da formação do autor encobertas pelo manto protetor da ficção, o filme é lírico, sarcástico, sacana, poético. Dos melhores filmes já produzidos no Brasil.
por Sílvio Tendler, in: http://terramagazine.terra.com.br/interna/0,,OI1305275-EI6623,00-Eu+Me+lembro+um+Amarcord+brasileiro.html

---

--- Ficha Técnica ---
Título Original: Eu Me Lembro
Gênero: Drama
Tempo de Duração: 108 minutos
Ano de Lançamento (Brasil): 2006
Estúdio:
Distribuição: Pandora Filmes
Direção: Edgard Navarro
Roteiro: Edgard Navarro
Produção: Sylvia Abreu e Moisés Augusto
Música: Tuzé Abreu
Fotografia: Hamilton Oliveira
Direção de Arte: Moacyr Gramacho e Shell Jr.
Edição: Jefferson Cysneiros

---

Eu Me Lembro (2005).Edgard Navarro.Br.105.dra.DvdRip.Filbradown.Tor-ipiau.avi
Format : AVI
Format/Info : Audio Video Interleave
File size : 701 MiB
Duration : 1h 44mn
Overall bit rate : 936 Kbps

Video
Format : MPEG-4 Visual
Format settings, BVOP : Yes
Format settings, QPel : No
Format settings, GMC : No warppoints
Format settings, Matrix : Default
Codec ID : XVID
Codec ID/Hint : XviD
Duration : 1h 44mn
Bit rate : 794 Kbps
Width : 640 pixels
Height : 352 pixels
Display aspect ratio : 16/9
Frame rate : 29.971 fps
Resolution : 24 bits
Scan type : Progressive
Bits/(Pixel*Frame) : 0.118
Stream size : 594 MiB (85%)

Audio
Format : MPEG Audio
Format version : Version 1
Format profile : Layer 3
Codec ID : 55
Codec ID/Hint : MP3
Bit rate mode : Constant
Bit rate : 128 Kbps
Channel(s) : 2 channels
Sampling rate : 48.0 KHz
Resolution : 16 bits
Stream size : 95.9 MiB (14%)
Alignment : Split accross interleaves
Interleave, duration : 24 ms (0.72 video frame)

Download Eu Me Lembro (2005) Edgard Navarro Br 105 dra DvdRip Filbradown Tor-ipiau avi torrentDownload


Comments (please add your comment)
No comments


Recent Searches

children of the universe     its gonna get wild     the 100     kortney kane     movies 2013     Java Heat 2013     dvd     wisin y yandel     tila tequila     sex     lykkeliten     Insidious Chapter 2 (2013     Hot For Teacher 7     ncis     kamakazi-mazi ft 5 star     from beijing with love     step mom     the drughouse 21     Frankie and Alice     lilboosie united we stand divided we fall     rewind rascal flatts     sky     o&c duels     i frankenstein bluray     java programming from beginning     sweet hert     porn     venus in fur polanski     movie     Joe 2014     flyboys     fbgp august alsina     atlas     Hollywood Undead     the punisher     brrip     ddr     Need for Speed (2014)     the simpsons season 12     anime     Hell in the pacific     john legend tonight     Suits S03E11     shyla stylez     kirtu     software     [HorribleSubs]     supernatural season 5     arrow     windows 7 activator     Indian Couple     music     logic alright     Noose Play Pictures     adult     Driver Mender 8.2.0.26     hum tum     pompeii     



Home - Browse Torrents - Upload Torrent - Stat - Forum - FAQ - Torrent sitemap - Login
ExtraTorrent.cc is in compliance with copyrights
BitCoin: 1XeH1kKXWYbzZcFHokGiZ4d3MWW5WyXzU
©2006-2013 ExtraTorrent.cc