ExtraTorrent.cc - The Largest Bittorent SystemLogin   |   Register
Latest Articles
Recommend us with Google

Most searched
Hot torrents
First Cams
View Torrent Info: Get Hard (2015) CAM x264 AAC - CPG
View Torrent Info: Insurgent.2015.READNFO.CAM.AAC.x264-LEGi0N
View Torrent Info: Cinderella 2015 DVDSCR.CAM AUDIO-FANTA
View Torrent Info: Chappie.2015.NEW.ViDEO.CAM.XViD-FANTA
Hot torrents
XVID DIVX
View Torrent Info: From.the.Dark.2014.BRRip.XViD-ETRG
View Torrent Info: Any.Day.2015.HDRip.XViD-ETRG
View Torrent Info: Cake.2014.BRRip.XViD-ETRG
View Torrent Info: Taken.3.2014.EXTENDED.BRRip.XViD-ETRG
Hot torrents
H264 X264
View Torrent Info: Winx.Club.The.Mystery.of.the.Abyss.2014.1080p.BluRay.AC3.x264-[ETRG]
View Torrent Info: Heavy.Metal.1981.1080p.BluRay.AC3.x264-[ETRG]
View Torrent Info: Interstellar.2014.IMAX.1080p.Bluray.DTS.x264-[ETRG]
View Torrent Info: Paddington.2014.1080p.BluRay.AC3.x264-[ETRG]
Hot torrents
Television
View Torrent Info: The Flash 2014 S01E17 HDTV x264-LOL[ettv]
View Torrent Info: Marvels Agents of S H I E L D S02E15 HDTV x264-ASAP[ettv]
View Torrent Info: Gangland.Undercover.S01E06.Endgame.HDTV.x264-STiCK
View Torrent Info: The Dovekeepers Part 1 HDTV x264-BAJSKORV[ettv]
View Torrent Info: Dolly Ki Doli (2015) 720p - HDrip - x264 - AAC 5.1 - ESub [DDR]
View Torrent Info: The Frighteners (1996)) BDRip 1080p Dual Audio Org DD (2.0 Hindi-5.1 Eng) x264 ~TITAN
View Torrent Info: The Legend of Hercules (2014) BDRip 720p Dual Audio Org DD 5.1 (Hindi Eng) x264 ~VISION
View Torrent Info: Baby - DVDRip - 1xCD - XviD - [DDR]
30s
Chat
To add new messages please Login or Register for FREE


ExtraTorrent.cc > Categories > Movies torrents > Drama torrents


Browse Movies torrents

Eu Me Lembro (2005) Edgard Navarro Br 105 dra DvdRip Filbradown Tor-ipiau avi torrent


Download torrent:Download Eu Me Lembro (2005) Edgard Navarro Br 105 dra DvdRip Filbradown Tor-ipiau avi torrentMagnet linkBookmark Torrent: Eu Me Lembro (2005) Edgard Navarro Br 105 dra DvdRip Filbradown Tor-ipiau aviSend Torrent: Eu Me Lembro (2005) Edgard Navarro Br 105 dra DvdRip Filbradown Tor-ipiau avi Eu Me Lembro (2005) Edgard Navarro Br 105 dra DvdRip Filbradown Tor-ipiau avi torrent
Direct Download: DOWNLOAD Torrent - no client needed
Info hash:931804A40BE59AE94AF115649852A234A03B7CA9
Category:Categories > Movies torrents > Drama torrents
Trackers:
10   View all torrent trackers >
Seeds:---Update seeds and leechers stat
Leechers:---
Health:
Total Size:700.72 MB
Number of files:
1   View torrent files >
Torrent added:2009-01-07 04:37:15

Download Eu Me Lembro (2005) Edgard Navarro Br 105 dra DvdRip Filbradown Tor-ipiau avi torrentDownload


Torrent Description
Eu Me Lembro (2005) - Edgard Navarro

[Eu Me Lembro (2005) Edgard Navarro Br 105 dra DvdRip Filbradown Tor-ipiau avi]

--- SINOPSE ---

Eu me Lembro narra a vida de Guiga, um personagem que poderia ser qualquer um que passou da infância à fase adulta entre os anos 50 e 70. Mostra as descobertas sexuais, as aventuras autênticas, as desilusões de um garoto (ou de uma geração) que viveu a maior revolução de costumes do século XX, do movimento hippie à conquista da liberdade pelas mulheres. Ao mesmo tempo, retrata o que foi sonho, exagero, exacerbação de sentimentos.

Ao fundo, o filme relembra a passagem da alegria de crescer em um país que era o do futuro ao desespero de ver um governo autoritário em ação. Os fatos políticos nacionais alteram, de certo modo, o que se passa dentro da casa e da vida do protagonista. Ao mesmo tempo, ele se mantém firme aos seus ideais.
fonte:
http://www.guiadasemana.com.br/film.asp?ID=11&cd_film=1378
---
"Eu me lembro" de Edgar Navarro, obra prima da criação brasileira a altura de um Federico Felini e seu celebrado "Amarcord", "Eu me lembro" tem a magia do gênio italiano, condimentada com tempero baiano: Pimenta na dose certa.
Filme de memórias, lembranças da formação do autor encobertas pelo manto protetor da ficção, o filme é lírico, sarcástico, sacana, poético. Dos melhores filmes já produzidos no Brasil.
por Sílvio Tendler, in: http://terramagazine.terra.com.br/interna/0,,OI1305275-EI6623,00-Eu+Me+lembro+um+Amarcord+brasileiro.html

---

--- Ficha Técnica ---
Título Original: Eu Me Lembro
Gênero: Drama
Tempo de Duração: 108 minutos
Ano de Lançamento (Brasil): 2006
Estúdio:
Distribuição: Pandora Filmes
Direção: Edgard Navarro
Roteiro: Edgard Navarro
Produção: Sylvia Abreu e Moisés Augusto
Música: Tuzé Abreu
Fotografia: Hamilton Oliveira
Direção de Arte: Moacyr Gramacho e Shell Jr.
Edição: Jefferson Cysneiros

---

Eu Me Lembro (2005).Edgard Navarro.Br.105.dra.DvdRip.Filbradown.Tor-ipiau.avi
Format : AVI
Format/Info : Audio Video Interleave
File size : 701 MiB
Duration : 1h 44mn
Overall bit rate : 936 Kbps

Video
Format : MPEG-4 Visual
Format settings, BVOP : Yes
Format settings, QPel : No
Format settings, GMC : No warppoints
Format settings, Matrix : Default
Codec ID : XVID
Codec ID/Hint : XviD
Duration : 1h 44mn
Bit rate : 794 Kbps
Width : 640 pixels
Height : 352 pixels
Display aspect ratio : 16/9
Frame rate : 29.971 fps
Resolution : 24 bits
Scan type : Progressive
Bits/(Pixel*Frame) : 0.118
Stream size : 594 MiB (85%)

Audio
Format : MPEG Audio
Format version : Version 1
Format profile : Layer 3
Codec ID : 55
Codec ID/Hint : MP3
Bit rate mode : Constant
Bit rate : 128 Kbps
Channel(s) : 2 channels
Sampling rate : 48.0 KHz
Resolution : 16 bits
Stream size : 95.9 MiB (14%)
Alignment : Split accross interleaves
Interleave, duration : 24 ms (0.72 video frame)

Download Eu Me Lembro (2005) Edgard Navarro Br 105 dra DvdRip Filbradown Tor-ipiau avi torrentDownload


Comments (please add your comment)
No comments


Recent Searches

the dramatic that's my favorite song     Vikings     software     oioiairsoft     you belong with me lyrics youtube     marvel agents of shield S01E01     one piece season 17     anime     los vecinos chamame     natalie la rose jeremih     YIFY     ETRG     DDR     adult     all hands on deck     music     Game On in the     killing jesus     movie     trick or treat     kate mim-mim     sex     j.cole foresthill     Insurgent.2015.READNFO.CAM.AAC     fetty wap my way     Dilli Waali Zaleem Girlfriend     la ley demichoaca     the dream rockin that thang mp3 download     The Walking Dead     wrong idea bad azz     tyler oakley psycho babble     Truffle Butter     walk the moon     breaking bad     faluts     dvd     porn     josh owens     video download     heeso maqal nimcaan hilac     movies 2015     kirko bangz double cup     Spartacus.COMPLETE     proyecto makabro     trap hip hop     ooh wee Terry wright     NEW (April 1, 2015) NEW     hmmm unexpected music entertaiment     home     love me like you do     gucci mane stash house     beto y sus canarios se termino el amor     naz mcsweeney     los traviesos     three six mafia     day one     i Got 5 on it     robot chicken     Vanda Lust, Stella Cox     publicagent 1080p     ETTV     love me in a special way debarge mp3     



Home - Browse Torrents - Upload Torrent - Stat - Forum - FAQ - Torrent sitemap - Login
ExtraTorrent.cc is in compliance with copyrights
BitCoin: 1XeH1kKXWYbzZcFHokGiZ4d3MWW5WyXzU
2006-2015 ExtraTorrent.cc