ExtraTorrent.cc - The Largest Bittorent SystemLogin   |   Register
Latest Articles
Recommend us with Google

Most searched
Hot torrents
First Cams
View Torrent Info: Minions 2015 720p HDTS x264 AAC-CPG
View Torrent Info: Pixels.2015.CAM.XVID.AC3-EVE
View Torrent Info: Inside.Out.2015.HDTURBO.TS.XviD.AC3-SUPERCHiVED
View Torrent Info: Ant-Man {2015} CAM XViD AC3-MRG
Hot torrents
XVID DIVX
View Torrent Info: The Beat Beneath My Feet.2014.HDRip.XViD-ETRG
View Torrent Info: The.Internship.Games.2015.AR-SUB.HDRip.XviD.AC3-N33B
View Torrent Info: Zombie.Massacre.2.Reich.of.the.Dead.2015.BRRip.XviD.AC3-EVO
View Torrent Info: The Escort.2015.HDRip.XViD-ETRG
Hot torrents
H264 X264
View Torrent Info: True.Story.2014.1080p.BluRay.x264.AC3-ETRG
View Torrent Info: Ex.Machina.2015.BluRay.720p.DTS.x264-MgB [ETRG]
View Torrent Info: Point.Break.1991.1080p.BluRay.x264.AC3-ETRG
View Torrent Info: Barely.Lethal.2015.720p.BluRay.x264.AAC-ETRG
Hot torrents
Television
View Torrent Info: Mr Robot S01E06 HDTV x264-ASAP[ettv]
View Torrent Info: Extant S02E05 HDTV x264-LOL[ettv]
View Torrent Info: Suits S05E06 HDTV x264-KILLERS[ettv]
View Torrent Info: Strike Back S05E10 HDTV x264-TLA[ettv]
View Torrent Info: Furious Seven (2015) Extended 1080p BDRip [Dual Audio] ORG BD 5.1 [Hindi-Eng]~Invincible
View Torrent Info: Dharam Sankat Mein (2015) DVDRip - 1xCD - x264 - AAC [DDR-ExclusivE]
View Torrent Info: Home.2015.PT.ENG.720p.BRRip.x264.AC3-Mikas
View Torrent Info: The.Admiral.Roaring.Currents.2014.LIMITED.720p.BRRip.x264.AC3-Mikas
30s
Chat
To add new messages please Login or Register for FREE


ExtraTorrent.cc > Categories > Movies torrents > Drama torrents


Browse Movies torrents

Eu Me Lembro (2005) Edgard Navarro Br 105 dra DvdRip Filbradown Tor-ipiau avi torrent


Download torrent:Download Eu Me Lembro (2005) Edgard Navarro Br 105 dra DvdRip Filbradown Tor-ipiau avi torrentMagnet linkBookmark Torrent: Eu Me Lembro (2005) Edgard Navarro Br 105 dra DvdRip Filbradown Tor-ipiau aviSend Torrent: Eu Me Lembro (2005) Edgard Navarro Br 105 dra DvdRip Filbradown Tor-ipiau avi Eu Me Lembro (2005) Edgard Navarro Br 105 dra DvdRip Filbradown Tor-ipiau avi torrent
Info hash:931804A40BE59AE94AF115649852A234A03B7CA9
Category:Categories > Movies torrents > Drama torrents
Trackers:
10   View all torrent trackers >
Seeds:---Update seeds and leechers stat
Leechers:---
Health:
Total Size:700.72 MB
Number of files:
1   View torrent files >
Torrent added:2009-01-07 04:37:15

Download Eu Me Lembro (2005) Edgard Navarro Br 105 dra DvdRip Filbradown Tor-ipiau avi torrent


Torrent Description
Eu Me Lembro (2005) - Edgard Navarro

[Eu Me Lembro (2005) Edgard Navarro Br 105 dra DvdRip Filbradown Tor-ipiau avi]

--- SINOPSE ---

Eu me Lembro narra a vida de Guiga, um personagem que poderia ser qualquer um que passou da infância à fase adulta entre os anos 50 e 70. Mostra as descobertas sexuais, as aventuras autênticas, as desilusões de um garoto (ou de uma geração) que viveu a maior revolução de costumes do século XX, do movimento hippie à conquista da liberdade pelas mulheres. Ao mesmo tempo, retrata o que foi sonho, exagero, exacerbação de sentimentos.

Ao fundo, o filme relembra a passagem da alegria de crescer em um país que era o do futuro ao desespero de ver um governo autoritário em ação. Os fatos políticos nacionais alteram, de certo modo, o que se passa dentro da casa e da vida do protagonista. Ao mesmo tempo, ele se mantém firme aos seus ideais.
fonte:
http://www.guiadasemana.com.br/film.asp?ID=11&cd_film=1378
---
"Eu me lembro" de Edgar Navarro, obra prima da criação brasileira a altura de um Federico Felini e seu celebrado "Amarcord", "Eu me lembro" tem a magia do gênio italiano, condimentada com tempero baiano: Pimenta na dose certa.
Filme de memórias, lembranças da formação do autor encobertas pelo manto protetor da ficção, o filme é lírico, sarcástico, sacana, poético. Dos melhores filmes já produzidos no Brasil.
por Sílvio Tendler, in: http://terramagazine.terra.com.br/interna/0,,OI1305275-EI6623,00-Eu+Me+lembro+um+Amarcord+brasileiro.html

---

--- Ficha Técnica ---
Título Original: Eu Me Lembro
Gênero: Drama
Tempo de Duração: 108 minutos
Ano de Lançamento (Brasil): 2006
Estúdio:
Distribuição: Pandora Filmes
Direção: Edgard Navarro
Roteiro: Edgard Navarro
Produção: Sylvia Abreu e Moisés Augusto
Música: Tuzé Abreu
Fotografia: Hamilton Oliveira
Direção de Arte: Moacyr Gramacho e Shell Jr.
Edição: Jefferson Cysneiros

---

Eu Me Lembro (2005).Edgard Navarro.Br.105.dra.DvdRip.Filbradown.Tor-ipiau.avi
Format : AVI
Format/Info : Audio Video Interleave
File size : 701 MiB
Duration : 1h 44mn
Overall bit rate : 936 Kbps

Video
Format : MPEG-4 Visual
Format settings, BVOP : Yes
Format settings, QPel : No
Format settings, GMC : No warppoints
Format settings, Matrix : Default
Codec ID : XVID
Codec ID/Hint : XviD
Duration : 1h 44mn
Bit rate : 794 Kbps
Width : 640 pixels
Height : 352 pixels
Display aspect ratio : 16/9
Frame rate : 29.971 fps
Resolution : 24 bits
Scan type : Progressive
Bits/(Pixel*Frame) : 0.118
Stream size : 594 MiB (85%)

Audio
Format : MPEG Audio
Format version : Version 1
Format profile : Layer 3
Codec ID : 55
Codec ID/Hint : MP3
Bit rate mode : Constant
Bit rate : 128 Kbps
Channel(s) : 2 channels
Sampling rate : 48.0 KHz
Resolution : 16 bits
Stream size : 95.9 MiB (14%)
Alignment : Split accross interleaves
Interleave, duration : 24 ms (0.72 video frame)

Download Eu Me Lembro (2005) Edgard Navarro Br 105 dra DvdRip Filbradown Tor-ipiau avi torrent


Comments (please add your comment)
No comments


Recent Searches

lost     tiger shrof dance     ek paheli leela     X-men 2 united     suits     lea salonga     you and i avant ft keke wyatt     japans killer quake pbs nova     sparks hilary duff     amy     I Am 2010     the strain     ETRG     bajrangi bhaijaan     avenger ita     cassidy freestyles     Prince Of Persia - Warrior Within     CumLouder     Guardians of the Galaxy     FAST & FURIOUS 6 HINDI     Sienna Day,Stella Cox     vivid     mad max     anime     dan sultan blackbird     gilbert bécaud     styx     Internally Yours     changing lanes     adult     anal     adobe illustrator     bahubali 2015     avengers     sex     cheat engine     software     dvd     music     bin bulaye barati     sex     Cum Craving Cuckolds 3     the brink     the voice au s04e02     ti private     public     drake cha cha remix     WWE Divas     porn     soha mil pasos     Smoking Hot Liverpool Minx Fucked Hard In Office     spli     horny     movie     publicagent     ETTV     transformers     YIFY     myself     megan nicole beautiful     DDR     asian meat anal     



Home - Browse Torrents - Upload Torrent - Stat - Forum - FAQ - Torrent sitemap - Login
ExtraTorrent.cc is in compliance with copyrights
BitCoin: 1XeH1kKXWYbzZcFHokGiZ4d3MWW5WyXzU
2006-2015 ExtraTorrent.cc