ExtraTorrent.cc - The Largest Bittorent SystemLogin   |   Register
Latest Articles
Recommend us with Google

Most searched
Hot torrents
First Cams
View Torrent Info: Captain America Civil War 2016 READNFO CAM XviD ACAB
View Torrent Info: Barbershop The Next Cut 2016 NEWCAM XviD AC3 ACAB
View Torrent Info: Criminal.2016.TS.XviD-VAiN
View Torrent Info: Batman v Superman: Dawn of Justice (2016) 720p HDTC - 1.2GB - ShAaNiG
Hot torrents
XVID DIVX
View Torrent Info: The.Witch.2015.BRRip.XViD-ETRG
View Torrent Info: The American Side.2016.HDRip.XViD-ETRG
View Torrent Info: How.to.Be.Single.2016.HDRip.XViD-ETRG
View Torrent Info: Zoolander.2.2016.HDRip.XViD-ETRG
Hot torrents
H264 X264
View Torrent Info: The American Side.2016.720p.WEB-DL.x264.AC3-ETRG
View Torrent Info: Zoolander.2.2016.720p.WEBRip.x264.AAC-ETRG
View Torrent Info: Casino.Royale.1967.720p.BRRip.x264.AAC-ETRG
View Torrent Info: How.to.Be.Single.2016.720p.WEBRip.x264.AAC-ETRG
Hot torrents
Television
View Torrent Info: The.Musketeers.S03E04.WEB-DL.x264-FUM[ettv]
View Torrent Info: Bates.Motel.S04E08.HDTV.x264-KILLERS[ettv]
View Torrent Info: Gotham.S02E19.HDTV.x264-LOL[ettv]
View Torrent Info: Turn.S03E02.PROPER.HDTV.x264-KILLERS[ettv]
View Torrent Info: Miss Teacher (2015)  - 720p - WebHD-Rip - Hindi - x264 - AAC - Mafiaking - M2Tv
View Torrent Info: Kapoor
View Torrent Info: Son.of.Saul.2015.1080p.BRRip.x264.Hungarian.AAC-ETRG
View Torrent Info: Baaghi (2016) - DVDScr - 1xCD - XviD - [DDR]
30s
Chat
To add new messages please Login or Register for FREE


ExtraTorrent.cc > Categories > Movies torrents > Drama torrents


Browse Movies torrents

Eu Me Lembro (2005) Edgard Navarro Br 105 dra DvdRip Filbradown Tor-ipiau avi torrent


Download torrent:Download Eu Me Lembro (2005) Edgard Navarro Br 105 dra DvdRip Filbradown Tor-ipiau avi torrentMagnet linkBookmark Torrent: Eu Me Lembro (2005) Edgard Navarro Br 105 dra DvdRip Filbradown Tor-ipiau aviSend Torrent: Eu Me Lembro (2005) Edgard Navarro Br 105 dra DvdRip Filbradown Tor-ipiau avi Eu Me Lembro (2005) Edgard Navarro Br 105 dra DvdRip Filbradown Tor-ipiau avi torrent
Direct Download: DOWNLOAD Torrent - no client needed
Info hash:931804A40BE59AE94AF115649852A234A03B7CA9
Category:Categories > Movies torrents > Drama torrents
Trackers:
10   View all torrent trackers >
Seeds:---Update seeds and leechers stat
Leechers:---
Health:
Total Size:700.72 MB
Number of files:
1   View torrent files >
Torrent added:2009-01-07 04:37:15

Download Eu Me Lembro (2005) Edgard Navarro Br 105 dra DvdRip Filbradown Tor-ipiau avi torrent Download


Safety Recommendation:   Download Torrents Anonymously!

ExtraTorrent strongly recommends using Trust.Zone VPN to anonymize your torrenting.

Try Trust.Zone VPN for FREE
Torrent Description
Eu Me Lembro (2005) - Edgard Navarro

[Eu Me Lembro (2005) Edgard Navarro Br 105 dra DvdRip Filbradown Tor-ipiau avi]

--- SINOPSE ---

Eu me Lembro narra a vida de Guiga, um personagem que poderia ser qualquer um que passou da infância à fase adulta entre os anos 50 e 70. Mostra as descobertas sexuais, as aventuras autênticas, as desilusões de um garoto (ou de uma geração) que viveu a maior revolução de costumes do século XX, do movimento hippie à conquista da liberdade pelas mulheres. Ao mesmo tempo, retrata o que foi sonho, exagero, exacerbação de sentimentos.

Ao fundo, o filme relembra a passagem da alegria de crescer em um país que era o do futuro ao desespero de ver um governo autoritário em ação. Os fatos políticos nacionais alteram, de certo modo, o que se passa dentro da casa e da vida do protagonista. Ao mesmo tempo, ele se mantém firme aos seus ideais.
fonte:
http://www.guiadasemana.com.br/film.asp?ID=11&cd_film=1378
---
"Eu me lembro" de Edgar Navarro, obra prima da criação brasileira a altura de um Federico Felini e seu celebrado "Amarcord", "Eu me lembro" tem a magia do gênio italiano, condimentada com tempero baiano: Pimenta na dose certa.
Filme de memórias, lembranças da formação do autor encobertas pelo manto protetor da ficção, o filme é lírico, sarcástico, sacana, poético. Dos melhores filmes já produzidos no Brasil.
por Sílvio Tendler, in: http://terramagazine.terra.com.br/interna/0,,OI1305275-EI6623,00-Eu+Me+lembro+um+Amarcord+brasileiro.html

---

--- Ficha Técnica ---
Título Original: Eu Me Lembro
Gênero: Drama
Tempo de Duração: 108 minutos
Ano de Lançamento (Brasil): 2006
Estúdio:
Distribuição: Pandora Filmes
Direção: Edgard Navarro
Roteiro: Edgard Navarro
Produção: Sylvia Abreu e Moisés Augusto
Música: Tuzé Abreu
Fotografia: Hamilton Oliveira
Direção de Arte: Moacyr Gramacho e Shell Jr.
Edição: Jefferson Cysneiros

---

Eu Me Lembro (2005).Edgard Navarro.Br.105.dra.DvdRip.Filbradown.Tor-ipiau.avi
Format : AVI
Format/Info : Audio Video Interleave
File size : 701 MiB
Duration : 1h 44mn
Overall bit rate : 936 Kbps

Video
Format : MPEG-4 Visual
Format settings, BVOP : Yes
Format settings, QPel : No
Format settings, GMC : No warppoints
Format settings, Matrix : Default
Codec ID : XVID
Codec ID/Hint : XviD
Duration : 1h 44mn
Bit rate : 794 Kbps
Width : 640 pixels
Height : 352 pixels
Display aspect ratio : 16/9
Frame rate : 29.971 fps
Resolution : 24 bits
Scan type : Progressive
Bits/(Pixel*Frame) : 0.118
Stream size : 594 MiB (85%)

Audio
Format : MPEG Audio
Format version : Version 1
Format profile : Layer 3
Codec ID : 55
Codec ID/Hint : MP3
Bit rate mode : Constant
Bit rate : 128 Kbps
Channel(s) : 2 channels
Sampling rate : 48.0 KHz
Resolution : 16 bits
Stream size : 95.9 MiB (14%)
Alignment : Split accross interleaves
Interleave, duration : 24 ms (0.72 video frame)

Download Eu Me Lembro (2005) Edgard Navarro Br 105 dra DvdRip Filbradown Tor-ipiau avi torrent Download


Comments (please add your comment)
No comments


Recent Searches

alvaro soler     jay z     hihana wirk     حسن الشافعي     zadyn pillow talk     anime     movie     porn     mgk     112 cupid     Really really     Rafa Hey Mina     sleeping with sirens     one dance     let me in     the witch     ETTV     pyschopath killer     kevin gates     software     por debajo de la mesa luis miguel     dancingbear     Thriller     kings of leon aha     dvd     lud foe ysn part 2     transsexuals     OMFG-Hello Mix     jamie fox     Keanu     adult     yamaha tgx-85     Julio iglesia     DDR     music     pc game 2015     lez     k liber     kent jones dont mind     kevin gates out the mud     very petite     sex     mac osx dvd     Wright's on the wall     anuvahood     it wont stop     rock bottom     game of thrones s06     ministry of sound house     ester dean rio     the morrisons murders     flying colors     Mary Lee's Corvette     yildiz tilbe     easy loving Freddy fender     Person of Interest     machine gun kelly lead you on     panda     ETRG     house map     young thug drippin     



Home - Browse Torrents - Upload Torrent - Stat - Forum - FAQ - Login
ExtraTorrent.cc is in compliance with copyrights
BitCoin: 12DiyqsWhENahDzdhdYsRrCw8FPQVcCkcm
Can't load ExtraTorrent? Try our official mirrors: etmirror.com - etproxy.com - extratorrentonline.com - extratorrentlive.com
2006-2016 ExtraTorrent.cc2