ExtraTorrent.cc - The Largest Bittorent SystemLogin   |   Register
Latest Articles
Recommend us

Most searched
Hot torrents
First Cams
View Torrent Info: Alice.Through.the.Looking.Glass.2016.TC
View Torrent Info: The.Angry.Birds.Movie.2016.TC.Unmarked.XVID.AC3.HQ.Hive-CM8
View Torrent Info: The Divergent Series.Allegiant.2016.TC.x264.AAC-ETRG
View Torrent Info: X-Men Apocalypse 2016 720p HDCAM x264 HQMic-Exclusive
Hot torrents
XVID DIVX
View Torrent Info: Hooligan.Legacy.2016.HDRip.XViD-ETRG
View Torrent Info: Robert.the.Doll.2015.BRRip.XviD.AC3-EVO
View Torrent Info: Poltergeist.Activity.2015.BRRip.XviD.AC3-EVO
View Torrent Info: Never.Back.Down.No.Surrender.2016.DVDRip.XviD.AC3-EVO
Hot torrents
H264 X264
View Torrent Info: Victor.Frankenstein.2015.BluRay.720p.DTS.x264-ETRG
View Torrent Info: The.5th.Wave.2016.BluRay.720p.DTS.x264-ETRG
View Torrent Info: The.Hunger.Games.Mockingjay.Part.2.2015.BluRay.720p.DTS.x264-ETRG
View Torrent Info: Bruce.Almighty.2003.1080p.BluRay.x264.DTS-ETRG
Hot torrents
Television
View Torrent Info: Game.of.Thrones.S06E06.HDTV.x264-KILLERS[ettv]
View Torrent Info: Top.Gear.S23E01.HDTV.x264-TLA[ettv]
View Torrent Info: Naked.and.Afraid.S05E11.Strength.in.Pain.HDTV.x264-CRiMSON[ettv]
View Torrent Info: UFC Fight Night 88 Prelims WEB-DL H264 Fight-BB
View Torrent Info: CHANNO KAMLI YAAR DI (2016) DVDRIP 1CDRIP x264 AAC [DDR]
View Torrent Info: Fan (2016) DVDRIP 1CDRIP x264 AAC ESub [DDR]
View Torrent Info: Saala Khadoos (2016) 720p - DVDRip - x264 - AC3 - ESub - [DDR]
View Torrent Info: Love Games (2016) - 1CD - DVD-Rip - Hindi - x264 - MP3 - ESub - Mafiaking - M2Tv ExClusive
30s
Chat
To add new messages please Login or Register for FREE


ExtraTorrent.cc > Categories > Movies torrents > Drama torrents


Browse Movies torrents

Eu Me Lembro (2005) Edgard Navarro Br 105 dra DvdRip Filbradown Tor-ipiau avi torrent


Download torrent:Download Eu Me Lembro (2005) Edgard Navarro Br 105 dra DvdRip Filbradown Tor-ipiau avi torrentMagnet linkBookmark Torrent: Eu Me Lembro (2005) Edgard Navarro Br 105 dra DvdRip Filbradown Tor-ipiau aviSend Torrent: Eu Me Lembro (2005) Edgard Navarro Br 105 dra DvdRip Filbradown Tor-ipiau avi Eu Me Lembro (2005) Edgard Navarro Br 105 dra DvdRip Filbradown Tor-ipiau avi torrent
Info hash:931804A40BE59AE94AF115649852A234A03B7CA9
Category:Categories > Movies torrents > Drama torrents
Trackers:
10   View all torrent trackers >
Seeds:---Update seeds and leechers stat
Leechers:---
Health:
Total Size:700.72 MB
Number of files:
1   View torrent files >
Torrent added:2009-01-07 04:37:15

Download Eu Me Lembro (2005) Edgard Navarro Br 105 dra DvdRip Filbradown Tor-ipiau avi torrent


Safety Recommendation:   Download Torrents Anonymously!

ExtraTorrent strongly recommends using Trust.Zone VPN to anonymize your torrenting.

Try Trust.Zone VPN for FREE
Torrent Description
Eu Me Lembro (2005) - Edgard Navarro

[Eu Me Lembro (2005) Edgard Navarro Br 105 dra DvdRip Filbradown Tor-ipiau avi]

--- SINOPSE ---

Eu me Lembro narra a vida de Guiga, um personagem que poderia ser qualquer um que passou da infância à fase adulta entre os anos 50 e 70. Mostra as descobertas sexuais, as aventuras autênticas, as desilusões de um garoto (ou de uma geração) que viveu a maior revolução de costumes do século XX, do movimento hippie à conquista da liberdade pelas mulheres. Ao mesmo tempo, retrata o que foi sonho, exagero, exacerbação de sentimentos.

Ao fundo, o filme relembra a passagem da alegria de crescer em um país que era o do futuro ao desespero de ver um governo autoritário em ação. Os fatos políticos nacionais alteram, de certo modo, o que se passa dentro da casa e da vida do protagonista. Ao mesmo tempo, ele se mantém firme aos seus ideais.
fonte:
http://www.guiadasemana.com.br/film.asp?ID=11&cd_film=1378
---
"Eu me lembro" de Edgar Navarro, obra prima da criação brasileira a altura de um Federico Felini e seu celebrado "Amarcord", "Eu me lembro" tem a magia do gênio italiano, condimentada com tempero baiano: Pimenta na dose certa.
Filme de memórias, lembranças da formação do autor encobertas pelo manto protetor da ficção, o filme é lírico, sarcástico, sacana, poético. Dos melhores filmes já produzidos no Brasil.
por Sílvio Tendler, in: http://terramagazine.terra.com.br/interna/0,,OI1305275-EI6623,00-Eu+Me+lembro+um+Amarcord+brasileiro.html

---

--- Ficha Técnica ---
Título Original: Eu Me Lembro
Gênero: Drama
Tempo de Duração: 108 minutos
Ano de Lançamento (Brasil): 2006
Estúdio:
Distribuição: Pandora Filmes
Direção: Edgard Navarro
Roteiro: Edgard Navarro
Produção: Sylvia Abreu e Moisés Augusto
Música: Tuzé Abreu
Fotografia: Hamilton Oliveira
Direção de Arte: Moacyr Gramacho e Shell Jr.
Edição: Jefferson Cysneiros

---

Eu Me Lembro (2005).Edgard Navarro.Br.105.dra.DvdRip.Filbradown.Tor-ipiau.avi
Format : AVI
Format/Info : Audio Video Interleave
File size : 701 MiB
Duration : 1h 44mn
Overall bit rate : 936 Kbps

Video
Format : MPEG-4 Visual
Format settings, BVOP : Yes
Format settings, QPel : No
Format settings, GMC : No warppoints
Format settings, Matrix : Default
Codec ID : XVID
Codec ID/Hint : XviD
Duration : 1h 44mn
Bit rate : 794 Kbps
Width : 640 pixels
Height : 352 pixels
Display aspect ratio : 16/9
Frame rate : 29.971 fps
Resolution : 24 bits
Scan type : Progressive
Bits/(Pixel*Frame) : 0.118
Stream size : 594 MiB (85%)

Audio
Format : MPEG Audio
Format version : Version 1
Format profile : Layer 3
Codec ID : 55
Codec ID/Hint : MP3
Bit rate mode : Constant
Bit rate : 128 Kbps
Channel(s) : 2 channels
Sampling rate : 48.0 KHz
Resolution : 16 bits
Stream size : 95.9 MiB (14%)
Alignment : Split accross interleaves
Interleave, duration : 24 ms (0.72 video frame)

Download Eu Me Lembro (2005) Edgard Navarro Br 105 dra DvdRip Filbradown Tor-ipiau avi torrent


Comments (please add your comment)
No comments


Recent Searches

Blacked - Riley Reid     ETTV     DDR     Windows xp iso     kid cudi     Kassiane Arquetti     gagging     black velvet     erick sermon     metallica     baroness     hindi     the conjuring 2     Staci Doll     x-men 2000 ita 1080p     soundcloud     civil war     movie     new girl     the catch s01e06     music     the doors     adult     Happy Valley S02E02     Naughty America     ETRG     girl girl     game of thrones     preacher     brasilian     window 10     x-men     software     Katt Garcia’s The Total Package     French Slut Clarisse Ready To Play Dirty     sex     girls     hotfriend     thronecast oathbreaker     mini tool partition     mortal kombat Complete     indyanna jones french     MyFirstPublic Andie Darling     Microsoft access     german sex     don't let me down     to rome with love     prison break season 3 complete     when elephants fight     porn     the giver     dakota skye     Happy Valley     rush hour s01e03     the wire season 4     boobs     anime     game of thrones s06e06 1080p     raghav raman2.0     dvd     MILF Sex Toy Party: Alexis Fawx & Nina Dolci     



Home - Browse Torrents - Upload Torrent - Stat - Forum - FAQ - Login
ExtraTorrent.cc is in compliance with copyrights
BitCoin: 12DiyqsWhENahDzdhdYsRrCw8FPQVcCkcm
Can't load ExtraTorrent? Try our official mirrors: etmirror.com - etproxy.com - extratorrentonline.com - extratorrentlive.com
2006-2016 ExtraTorrent.cc2