ExtraTorrent.cc - The Largest Bittorent SystemLogin   |   Register
ExtraTorrent.cc
Important Information
ExtraTorrent.cc
Please pay attention
We moved to new domain EXTRATORRENT.CC
More information comming soon...

Latest Articles
Recommend us with Google

Most searched
Hot torrents
First Cams
View Torrent Info: Pompeii 2014 TS XviD MP3 MiLLENiUM
View Torrent Info: Rio 2 2014 READNFO CAM XViD-1TiMEUP
View Torrent Info: Need For Speed 2014 WEBRip XviD MP3-DY1 [SUMO]
View Torrent Info: Noah 2014 CAM READNFO XVID-EVE
Hot torrents
XVID DIVX
View Torrent Info: Labor Day[2013] BRRip XViD[AC3]-SaM[ETRG]
View Torrent Info: The Appearing [2014] HDRip XViD juggs[ETRG]
View Torrent Info: Devils Due[2014] HDRip XViD juggs[ETRG]
View Torrent Info: The Harry Hill Movie[2013] DVDRip XViD juggs[ETRG]
Hot torrents
H264 X264
View Torrent Info: The Employer 2013 HDRip AAC x264-Masta [ETRG]
View Torrent Info: Devils.Due.2014.720p.WEB-DL.H264-PublicHD
View Torrent Info: The Wild 2006 BluRay 720p DTS x264-MgB [ETRG]
View Torrent Info: Tropic Thunder [2008] Directors Cut 1080p BluRay AC3 x264-tomcat12[ETRG]
Hot torrents
Television
View Torrent Info: Fargo S01E01 HDTV x264-2HD[ettv]
View Torrent Info: Marvels Agents of S.H.I.E.L.D S01E18 HDTV x264-KILLERS[ettv]
View Torrent Info: Supernatural S09E18 HDTV x264-LOL[ettv]
View Torrent Info: Chicago Fire S02E19 HDTV x264-LOL[ettv]
View Torrent Info: The Protector 2 [2013] BRRip XviD[Thai]-SaM[ETRG]
View Torrent Info: Bhoothnath Returns (2014) TeleSync - x264 - 1CD - SAP[DDR]
View Torrent Info: Tangled (2010) | m-HD | 720p | Hindi | Eng | BHATTI87
View Torrent Info: Contraband 2012 1080p BDRip(AC3-5.1ch)[Dual-Audio][Eng-Hindi]~Boniin
30s
Chat
To add new messages please Login or Register for FREE
novalayer

BetExpert.me sport tips

ExtraTorrent.cc > Categories > Movies torrents > Drama torrents


Browse Movies torrents

Eu Me Lembro (2005) Edgard Navarro Br 105 dra DvdRip Filbradown Tor-ipiau avi torrent


Download torrent:Download Eu Me Lembro (2005) Edgard Navarro Br 105 dra DvdRip Filbradown Tor-ipiau avi torrentMagnet linkBookmark Torrent: Eu Me Lembro (2005) Edgard Navarro Br 105 dra DvdRip Filbradown Tor-ipiau aviSend Torrent: Eu Me Lembro (2005) Edgard Navarro Br 105 dra DvdRip Filbradown Tor-ipiau avi Eu Me Lembro (2005) Edgard Navarro Br 105 dra DvdRip Filbradown Tor-ipiau avi torrent
Direct Download: DOWNLOAD Torrent - no client needed
Info hash:931804A40BE59AE94AF115649852A234A03B7CA9
Category:Categories > Movies torrents > Drama torrents
Trackers:
10   View all torrent trackers >
Seeds:---Update seeds and leechers stat
Leechers:---
Health:
Total Size:700.72 MB
Number of files:
1   View torrent files >
Torrent added:2009-01-07 04:37:15

Download Eu Me Lembro (2005) Edgard Navarro Br 105 dra DvdRip Filbradown Tor-ipiau avi torrentDownload


Torrent Description
Eu Me Lembro (2005) - Edgard Navarro

[Eu Me Lembro (2005) Edgard Navarro Br 105 dra DvdRip Filbradown Tor-ipiau avi]

--- SINOPSE ---

Eu me Lembro narra a vida de Guiga, um personagem que poderia ser qualquer um que passou da infância à fase adulta entre os anos 50 e 70. Mostra as descobertas sexuais, as aventuras autênticas, as desilusões de um garoto (ou de uma geração) que viveu a maior revolução de costumes do século XX, do movimento hippie à conquista da liberdade pelas mulheres. Ao mesmo tempo, retrata o que foi sonho, exagero, exacerbação de sentimentos.

Ao fundo, o filme relembra a passagem da alegria de crescer em um país que era o do futuro ao desespero de ver um governo autoritário em ação. Os fatos políticos nacionais alteram, de certo modo, o que se passa dentro da casa e da vida do protagonista. Ao mesmo tempo, ele se mantém firme aos seus ideais.
fonte:
http://www.guiadasemana.com.br/film.asp?ID=11&cd_film=1378
---
"Eu me lembro" de Edgar Navarro, obra prima da criação brasileira a altura de um Federico Felini e seu celebrado "Amarcord", "Eu me lembro" tem a magia do gênio italiano, condimentada com tempero baiano: Pimenta na dose certa.
Filme de memórias, lembranças da formação do autor encobertas pelo manto protetor da ficção, o filme é lírico, sarcástico, sacana, poético. Dos melhores filmes já produzidos no Brasil.
por Sílvio Tendler, in: http://terramagazine.terra.com.br/interna/0,,OI1305275-EI6623,00-Eu+Me+lembro+um+Amarcord+brasileiro.html

---

--- Ficha Técnica ---
Título Original: Eu Me Lembro
Gênero: Drama
Tempo de Duração: 108 minutos
Ano de Lançamento (Brasil): 2006
Estúdio:
Distribuição: Pandora Filmes
Direção: Edgard Navarro
Roteiro: Edgard Navarro
Produção: Sylvia Abreu e Moisés Augusto
Música: Tuzé Abreu
Fotografia: Hamilton Oliveira
Direção de Arte: Moacyr Gramacho e Shell Jr.
Edição: Jefferson Cysneiros

---

Eu Me Lembro (2005).Edgard Navarro.Br.105.dra.DvdRip.Filbradown.Tor-ipiau.avi
Format : AVI
Format/Info : Audio Video Interleave
File size : 701 MiB
Duration : 1h 44mn
Overall bit rate : 936 Kbps

Video
Format : MPEG-4 Visual
Format settings, BVOP : Yes
Format settings, QPel : No
Format settings, GMC : No warppoints
Format settings, Matrix : Default
Codec ID : XVID
Codec ID/Hint : XviD
Duration : 1h 44mn
Bit rate : 794 Kbps
Width : 640 pixels
Height : 352 pixels
Display aspect ratio : 16/9
Frame rate : 29.971 fps
Resolution : 24 bits
Scan type : Progressive
Bits/(Pixel*Frame) : 0.118
Stream size : 594 MiB (85%)

Audio
Format : MPEG Audio
Format version : Version 1
Format profile : Layer 3
Codec ID : 55
Codec ID/Hint : MP3
Bit rate mode : Constant
Bit rate : 128 Kbps
Channel(s) : 2 channels
Sampling rate : 48.0 KHz
Resolution : 16 bits
Stream size : 95.9 MiB (14%)
Alignment : Split accross interleaves
Interleave, duration : 24 ms (0.72 video frame)

Download Eu Me Lembro (2005) Edgard Navarro Br 105 dra DvdRip Filbradown Tor-ipiau avi torrentDownload


Comments (please add your comment)
No comments


Recent Searches

booty talk     My krazy life     thousand foot krutch made in canada     they don't know     bhutnath     arrow     turbo     adult     stone sour say you'll haunt me     gay deep     rael     Mr Strokes XXX     The.Originals.S01E18.HDTV.x264-LOL     lyrica anderson all the way     mai tera hero     sex     dvd     fake taxi     birthday sex     selena     Chloe Amour     never let me down     the originals s01e18     instant emmersion     movie     tracy chapman the promise mp3     community season 5     need for speed     tamil dubbed     the middle s04e0     ram janey     dvd dark angel     rock bands of the 90s     unlawful killing     porn     hardtied shades of black     music     sellyour gf     judith mcallister     win pc sign     toni braxton     last days on mars     sweet sinner     lil boosie     Need.for.Speed.2014     software     pompeii 2014     xvid     The Amazing Spider-Man 2     anime     sunny leone     yg who do you love     Bob Marley     the art of the steal     muppets     sevendust     mix de los dos primos     italian xxx     



Home - Browse Torrents - Upload Torrent - Stat - Forum - FAQ - Torrent sitemap - Login
ExtraTorrent.cc is in compliance with copyrights
BitCoin: 1XeH1kKXWYbzZcFHokGiZ4d3MWW5WyXzU
©2006-2013 ExtraTorrent.cc