ExtraTorrent.cc - The Largest Bittorent SystemLogin   |   Register
ExtraTorrent.cc
Important Information
ExtraTorrent.cc
Please pay attention
We moved to new domain EXTRATORRENT.CC
More information comming soon...

Latest Articles
Recommend us with Google

Most searched
Hot torrents
First Cams
View Torrent Info: Sex Tape 2014 CAM NEW SOURCES XViD-BL4CKP34RL
View Torrent Info: Lucy.2014.CAM.Xvid-CRYS
View Torrent Info: 22.Jump.Street.2014.HDCAM.Xvid-CRYS
View Torrent Info: The Purge 2 Anarchy 2014 CAM READNFO XViD-BL4CKP34RL
Hot torrents
XVID DIVX
View Torrent Info: Fading.Gigolo.2013.BRRip.XViD-juggs[ETRG]
View Torrent Info: Captain.America.The.Winter.Soldier.2014.DVDRip.XViD.AC3-juggs[ETRG]
View Torrent Info: Palo.Alto.2013.HDRip.XViD-juggs[ETRG]
View Torrent Info: Draft.Day.2014.HDRip.XViD.AC3-juggs[ETRG]
Hot torrents
H264 X264
View Torrent Info: Cosmos-A.SpaceTime.Odyssey.S1.2014.1080p.BluRay.AAC.x264-tomcat12[ETRG]
View Torrent Info: Paprika.2006.1080p.BluRay.AAC.x264-tomcat12[ETRG]
View Torrent Info: A.Haunted.House.2.2014.HDRip.720P.AAC.x264-Masta[ETRG]
View Torrent Info: Palo.Alto.2013.720p.WEB-DL.x264[ETRG]
Hot torrents
Television
View Torrent Info: Rookie Blue S05E10 HDTV x264-2HD[ettv]
View Torrent Info: Extant S01E04 HDTV x264-LOL[ettv]
View Torrent Info: The Bridge US S02E04 HDTV x264-KILLERS[ettv]
View Torrent Info: Suits S04E07 HDTV x264-KILLERS[ettv]
View Torrent Info: The Rock (1996) BDRip 1080p Dual Audio [Hindi ORG DD 2.0-Eng 5.1] Tariq Qureshi
View Torrent Info: I Still Know What You Did Last Summer (1998) | m-HD | 720p | Hindi | Eng | BHATTI87
View Torrent Info: Holiday (2014) - 720p - DVDRip - x264 - AC3 [DDR]
View Torrent Info: The Possession 2012 1080p BDRip [DualAudio] (DD 5.1ch) [Hindi-Eng] ~Hi-Man
30s
Chat
To add new messages please Login or Register for FREE
novalayer


ExtraTorrent.cc > Categories > Movies torrents > Drama torrents


Browse Movies torrents

Eu Me Lembro (2005) Edgard Navarro Br 105 dra DvdRip Filbradown Tor-ipiau avi torrent


Download torrent:Download Eu Me Lembro (2005) Edgard Navarro Br 105 dra DvdRip Filbradown Tor-ipiau avi torrentMagnet linkBookmark Torrent: Eu Me Lembro (2005) Edgard Navarro Br 105 dra DvdRip Filbradown Tor-ipiau aviSend Torrent: Eu Me Lembro (2005) Edgard Navarro Br 105 dra DvdRip Filbradown Tor-ipiau avi Eu Me Lembro (2005) Edgard Navarro Br 105 dra DvdRip Filbradown Tor-ipiau avi torrent
Direct Download: DOWNLOAD Torrent - no client needed
Info hash:931804A40BE59AE94AF115649852A234A03B7CA9
Category:Categories > Movies torrents > Drama torrents
Trackers:
10   View all torrent trackers >
Seeds:---Update seeds and leechers stat
Leechers:---
Health:
Total Size:700.72 MB
Number of files:
1   View torrent files >
Torrent added:2009-01-07 04:37:15

Download Eu Me Lembro (2005) Edgard Navarro Br 105 dra DvdRip Filbradown Tor-ipiau avi torrentDownload


Torrent Description
Eu Me Lembro (2005) - Edgard Navarro

[Eu Me Lembro (2005) Edgard Navarro Br 105 dra DvdRip Filbradown Tor-ipiau avi]

--- SINOPSE ---

Eu me Lembro narra a vida de Guiga, um personagem que poderia ser qualquer um que passou da infância à fase adulta entre os anos 50 e 70. Mostra as descobertas sexuais, as aventuras autênticas, as desilusões de um garoto (ou de uma geração) que viveu a maior revolução de costumes do século XX, do movimento hippie à conquista da liberdade pelas mulheres. Ao mesmo tempo, retrata o que foi sonho, exagero, exacerbação de sentimentos.

Ao fundo, o filme relembra a passagem da alegria de crescer em um país que era o do futuro ao desespero de ver um governo autoritário em ação. Os fatos políticos nacionais alteram, de certo modo, o que se passa dentro da casa e da vida do protagonista. Ao mesmo tempo, ele se mantém firme aos seus ideais.
fonte:
http://www.guiadasemana.com.br/film.asp?ID=11&cd_film=1378
---
"Eu me lembro" de Edgar Navarro, obra prima da criação brasileira a altura de um Federico Felini e seu celebrado "Amarcord", "Eu me lembro" tem a magia do gênio italiano, condimentada com tempero baiano: Pimenta na dose certa.
Filme de memórias, lembranças da formação do autor encobertas pelo manto protetor da ficção, o filme é lírico, sarcástico, sacana, poético. Dos melhores filmes já produzidos no Brasil.
por Sílvio Tendler, in: http://terramagazine.terra.com.br/interna/0,,OI1305275-EI6623,00-Eu+Me+lembro+um+Amarcord+brasileiro.html

---

--- Ficha Técnica ---
Título Original: Eu Me Lembro
Gênero: Drama
Tempo de Duração: 108 minutos
Ano de Lançamento (Brasil): 2006
Estúdio:
Distribuição: Pandora Filmes
Direção: Edgard Navarro
Roteiro: Edgard Navarro
Produção: Sylvia Abreu e Moisés Augusto
Música: Tuzé Abreu
Fotografia: Hamilton Oliveira
Direção de Arte: Moacyr Gramacho e Shell Jr.
Edição: Jefferson Cysneiros

---

Eu Me Lembro (2005).Edgard Navarro.Br.105.dra.DvdRip.Filbradown.Tor-ipiau.avi
Format : AVI
Format/Info : Audio Video Interleave
File size : 701 MiB
Duration : 1h 44mn
Overall bit rate : 936 Kbps

Video
Format : MPEG-4 Visual
Format settings, BVOP : Yes
Format settings, QPel : No
Format settings, GMC : No warppoints
Format settings, Matrix : Default
Codec ID : XVID
Codec ID/Hint : XviD
Duration : 1h 44mn
Bit rate : 794 Kbps
Width : 640 pixels
Height : 352 pixels
Display aspect ratio : 16/9
Frame rate : 29.971 fps
Resolution : 24 bits
Scan type : Progressive
Bits/(Pixel*Frame) : 0.118
Stream size : 594 MiB (85%)

Audio
Format : MPEG Audio
Format version : Version 1
Format profile : Layer 3
Codec ID : 55
Codec ID/Hint : MP3
Bit rate mode : Constant
Bit rate : 128 Kbps
Channel(s) : 2 channels
Sampling rate : 48.0 KHz
Resolution : 16 bits
Stream size : 95.9 MiB (14%)
Alignment : Split accross interleaves
Interleave, duration : 24 ms (0.72 video frame)

Download Eu Me Lembro (2005) Edgard Navarro Br 105 dra DvdRip Filbradown Tor-ipiau avi torrentDownload


Comments (please add your comment)
No comments


Recent Searches




Home - Browse Torrents - Upload Torrent - Stat - Forum - FAQ - Torrent sitemap - Login
ExtraTorrent.cc is in compliance with copyrights
BitCoin: 1XeH1kKXWYbzZcFHokGiZ4d3MWW5WyXzU
©2006-2013 ExtraTorrent.cc