ExtraTorrent.cc - The Largest Bittorent SystemLogin   |   Register
Latest Articles
Recommend us with Google

Most searched
Hot torrents
First Cams
View Torrent Info: Point.Break.2015.HDCAM.XVID.AC3.HQ.Hive-CM8
View Torrent Info: Fifty shades of Black 2016 HDCAM x264-CPG
View Torrent Info: Norm.of.the.North.2016.CAM.XviD-UnKnOwN
View Torrent Info: The.Boy.2016.TS.HQ.XviD-PARS
Hot torrents
XVID DIVX
View Torrent Info: The.Black.Hole.2015.BRRip.XviD.AC3-EVO
View Torrent Info: Creed.2015.BRRip.XViD.AC3-ETRG
View Torrent Info: Nina.Forever.2015.HDRip.XViD-ETRG
View Torrent Info: Cabin.Fever.2016.HDRip.XViD-ETRG
Hot torrents
H264 X264
View Torrent Info: Swung 2015 720p.BRRip.x264.AAC-ETRG
View Torrent Info: Miss.You.Already.2015.1080p.BluRay.x264.AC3-ETRG
View Torrent Info: Road.Trip.2008.Unrated.720p.BluRay.x264.AAC-ETRG
View Torrent Info: Troy.2004.Dir.Cut.1080p.BluRay.DTS.x264-ETRG
Hot torrents
Television
View Torrent Info: Black.Sails.S03E04.WEBRip.x264-FUM[ettv]
View Torrent Info: Bitten.S03E01.HDTV.x264-KILLERS[ettv]
View Torrent Info: The.Originals.S03E12.HDTV.x264-LOL[ettv]
View Torrent Info: Grimm.S05E09.HDTV.x264-FUM[ettv]
View Torrent Info: Mastizaade.2016.HDRip.XviD.Hindi-ETRG
View Torrent Info: The.Lady.in.the.Car.with.Glasses.and.a.Gun.2015.720p.BRRip.x264.French.AAC-ETRG
View Torrent Info: Bird.People.2014.720p.BRRip.x264.French.AAC-ETRG
View Torrent Info: Fitoor (2016) DesiSCR - x264 - 1CDRip - AAC - [DDR]
30s
Chat
To add new messages please Login or Register for FREE


ExtraTorrent.cc > Categories > Movies torrents > Drama torrents


Browse Movies torrents

Eu Me Lembro (2005) Edgard Navarro Br 105 dra DvdRip Filbradown Tor-ipiau avi torrent


Download torrent:Download Eu Me Lembro (2005) Edgard Navarro Br 105 dra DvdRip Filbradown Tor-ipiau avi torrentMagnet linkBookmark Torrent: Eu Me Lembro (2005) Edgard Navarro Br 105 dra DvdRip Filbradown Tor-ipiau aviSend Torrent: Eu Me Lembro (2005) Edgard Navarro Br 105 dra DvdRip Filbradown Tor-ipiau avi Eu Me Lembro (2005) Edgard Navarro Br 105 dra DvdRip Filbradown Tor-ipiau avi torrent
Info hash:931804A40BE59AE94AF115649852A234A03B7CA9
Category:Categories > Movies torrents > Drama torrents
Trackers:
10   View all torrent trackers >
Seeds:---Update seeds and leechers stat
Leechers:---
Health:
Total Size:700.72 MB
Number of files:
1   View torrent files >
Torrent added:2009-01-07 04:37:15

Download Eu Me Lembro (2005) Edgard Navarro Br 105 dra DvdRip Filbradown Tor-ipiau avi torrent


Torrent Description
Eu Me Lembro (2005) - Edgard Navarro

[Eu Me Lembro (2005) Edgard Navarro Br 105 dra DvdRip Filbradown Tor-ipiau avi]

--- SINOPSE ---

Eu me Lembro narra a vida de Guiga, um personagem que poderia ser qualquer um que passou da infância à fase adulta entre os anos 50 e 70. Mostra as descobertas sexuais, as aventuras autênticas, as desilusões de um garoto (ou de uma geração) que viveu a maior revolução de costumes do século XX, do movimento hippie à conquista da liberdade pelas mulheres. Ao mesmo tempo, retrata o que foi sonho, exagero, exacerbação de sentimentos.

Ao fundo, o filme relembra a passagem da alegria de crescer em um país que era o do futuro ao desespero de ver um governo autoritário em ação. Os fatos políticos nacionais alteram, de certo modo, o que se passa dentro da casa e da vida do protagonista. Ao mesmo tempo, ele se mantém firme aos seus ideais.
fonte:
http://www.guiadasemana.com.br/film.asp?ID=11&cd_film=1378
---
"Eu me lembro" de Edgar Navarro, obra prima da criação brasileira a altura de um Federico Felini e seu celebrado "Amarcord", "Eu me lembro" tem a magia do gênio italiano, condimentada com tempero baiano: Pimenta na dose certa.
Filme de memórias, lembranças da formação do autor encobertas pelo manto protetor da ficção, o filme é lírico, sarcástico, sacana, poético. Dos melhores filmes já produzidos no Brasil.
por Sílvio Tendler, in: http://terramagazine.terra.com.br/interna/0,,OI1305275-EI6623,00-Eu+Me+lembro+um+Amarcord+brasileiro.html

---

--- Ficha Técnica ---
Título Original: Eu Me Lembro
Gênero: Drama
Tempo de Duração: 108 minutos
Ano de Lançamento (Brasil): 2006
Estúdio:
Distribuição: Pandora Filmes
Direção: Edgard Navarro
Roteiro: Edgard Navarro
Produção: Sylvia Abreu e Moisés Augusto
Música: Tuzé Abreu
Fotografia: Hamilton Oliveira
Direção de Arte: Moacyr Gramacho e Shell Jr.
Edição: Jefferson Cysneiros

---

Eu Me Lembro (2005).Edgard Navarro.Br.105.dra.DvdRip.Filbradown.Tor-ipiau.avi
Format : AVI
Format/Info : Audio Video Interleave
File size : 701 MiB
Duration : 1h 44mn
Overall bit rate : 936 Kbps

Video
Format : MPEG-4 Visual
Format settings, BVOP : Yes
Format settings, QPel : No
Format settings, GMC : No warppoints
Format settings, Matrix : Default
Codec ID : XVID
Codec ID/Hint : XviD
Duration : 1h 44mn
Bit rate : 794 Kbps
Width : 640 pixels
Height : 352 pixels
Display aspect ratio : 16/9
Frame rate : 29.971 fps
Resolution : 24 bits
Scan type : Progressive
Bits/(Pixel*Frame) : 0.118
Stream size : 594 MiB (85%)

Audio
Format : MPEG Audio
Format version : Version 1
Format profile : Layer 3
Codec ID : 55
Codec ID/Hint : MP3
Bit rate mode : Constant
Bit rate : 128 Kbps
Channel(s) : 2 channels
Sampling rate : 48.0 KHz
Resolution : 16 bits
Stream size : 95.9 MiB (14%)
Alignment : Split accross interleaves
Interleave, duration : 24 ms (0.72 video frame)

Download Eu Me Lembro (2005) Edgard Navarro Br 105 dra DvdRip Filbradown Tor-ipiau avi torrent


Comments (please add your comment)
No comments


Recent Searches

Podivuhodný závod S27E11     Jessyka Swan (Freedom     ghetto boys die     voyeur pack     matt simons     ®dx     sex     madison ivy     pillow talk     ETTV     kevin gates     mr holmes     solo con verte     inside out     massage     rhianna     movie     S02E06     godzilla     software     el chivo     music     mama dual hindi     Thani Oruvan (2015)     ETRG     nicki minaj     dvd     lightroom     no more drama mary j blige     jaarclub     how to save us     khalifa     gotham S01E21     DDR     neverman     the x files xvid     tushy     professor cenerentolo     adult     young thug best friend     YIFY     total annihilation     anime     son of saul     limitless s01e13     El bebeto cuando tu me besas     s02e05     That's Entertainment! III (1994)     Perception S03E02     T.I.     sleepy hollow     porn     gerardo     the ugly truth     il ponte delle spie dvd     lucha underground 2016     the wait 2015     k michell     h vahn     legends     Two Faces of Colin (2016)     mopeed rdz     



Home - Browse Torrents - Upload Torrent - Stat - Forum - FAQ - Login
ExtraTorrent.cc is in compliance with copyrights
BitCoin: 12DiyqsWhENahDzdhdYsRrCw8FPQVcCkcm
Can't load ExtraTorrent? Try our official mirrors: etmirror.com - etproxy.com - extratorrentonline.com - extratorrentlive.com
2006-2016 ExtraTorrent.cc1