ExtraTorrent.cc - The Largest Bittorent SystemLogin   |   Register
Latest Articles
Most searched
Hot torrents
First Cams
View Torrent Info: Miss Peregrines Home for Peculiar Children (2016) HDCAM UnKnOwN
View Torrent Info: Storks 2016 HD-TS XviD-CPG
View Torrent Info: The Magnificent Seven 2016 NEW HD-TS x264-CPG
View Torrent Info: When the Bough Breaks (2016) HDCAM XviD UnKnOwN
Hot torrents
XVID DIVX
View Torrent Info: Flock.of.Dudes.2016.HDRip.XViD.AC3-ETRG
View Torrent Info: Blood.Father.2016.BRRip.XviD.AC3-EVO
View Torrent Info: Ice.Age.Collision.Course.2016.BRRip.XViD.AC3-ETRG
View Torrent Info: The.Infiltrator.2016.BRRip.XviD.AC3-EVO
Hot torrents
H264 X264
View Torrent Info: Ghostbusters 2016 HQ 1080p Blu-Ray x264 DTS-HD 5.1 ESub -DDR
View Torrent Info: Blood.Father.2016.720p.BRRip.x264.AAC-ETRG
View Torrent Info: Ice.Age.Collision.Course.2016.1080p.BRRip.x264.AAC-ETRG
View Torrent Info: The.Infiltrator.2016.720p.BRRip.x264.AAC-ETRG
Hot torrents
Television
View Torrent Info: Z.Nation.S03E03.HDTV.x264-KILLERS[ettv]
View Torrent Info: MacGyver.2016.S01E02.HDTV.x264-LOL[ettv]
View Torrent Info: Van.Helsing.S01E03.HDTV.x264-CRiMSON[ettv]
View Torrent Info: Hawaii.Five-0.2010.S07E02.REAL.HDTV.x264-LOL[ettv]
View Torrent Info: Nannaku Prematho (2016) 720p UNCUT HDRip x264 Eng Subs [Dual Audio] [Hindi DD 2.0 - Telugu 2.0] Exclusive By -=!Dr.STAR!=-
View Torrent Info: The.Conjuring.2016.HQ.1080p.BluRay.x264.Hindi.Eng.DTS-ETRG
View Torrent Info: Laal Rang (2016) DVDRIP 1GBRIP x264 AAC ESub [DDR Exclusive]
View Torrent Info: M.S. Dhoni: The Untold Story (2016) - 800 MB - DesiSCR-Rip - Hindi - x264 - MP3 - Mafiaking - M2Tv
30s
Chat
To add new messages please Login or Register for FREE

Warning! Use a VPN When Downloading Torrents!
Your IP Address is 54.92.192.156.   Location is United States
Your Internet Provider and Government can track your torrent activity!  Hide your IP ADDRESS with a VPN!
ExtraTorrent strongly recommends using Trust.Zone VPN to anonymize your torrenting. It's FREE!

ExtraTorrent.cc > Categories > Adult / Porn torrents > Video torrents


Browse Adult / Porn torrents

PASHTO XXX DRAMA JAWARGAR MP4 From PASHTOXXX torrent


Download torrent:Download PASHTO XXX DRAMA JAWARGAR MP4 From PASHTOXXX torrentMagnet linkBookmark Torrent: PASHTO XXX DRAMA JAWARGAR MP4 From PASHTOXXX PASHTO XXX DRAMA JAWARGAR MP4 From PASHTOXXX torrent
Info hash:3F507FC28ACFDF1B12BB63A9FE6F3653F7B4D6F2
Category:Categories > Adult / Porn torrents > Video torrents
Trackers:
13   View all torrent trackers >
Health:
 seeds: 0, leechers: 1| Update >
Torrent language:Hindi Hindi
Total Size:224.02 MB
Number of files:
1   View torrent files >
Uploader:
Torrent added:2012-10-14 10:21:41   |   Last edit: 2012-10-14 10:53:26 by
Users rating:---, not rated. please login to rate.

Download PASHTO XXX DRAMA JAWARGAR MP4 From PASHTOXXX torrent


Safety Recommendation:   Download Torrents Anonymously!

Your IP Address is 54.92.192.156.   Location is United States
Your Internet Provider and Government can track your torrent activity!  Hide your IP ADDRESS with a VPN!
ExtraTorrent strongly recommends using Trust.Zone VPN to anonymize your torrenting.

Torrent Description
FIRST TIME PASHTO XXX DRAMA IN PAKISTAN

NAME:JAWARGAR



INFO:

Video
ID : 1
Format : AVC
Format/Info : Advanced Video Codec
Format profile : [email protected]
Format settings, CABAC : No
Format settings, ReFrames : 1 frame
Codec ID : avc1
Codec ID/Info : Advanced Video Coding
Duration : 1h 36mn
Bit rate : 199 Kbps
Width : 176 pixels
Height : 144 pixels
Display aspect ratio : 4:3
Frame rate mode : Constant
Frame rate : 12.000 fps
Color space : YUV
Chroma subsampling : 4:2:0
Bit depth : 8 bits
Scan type : Progressive
Bits/(Pixel*Frame) : 0.655
Stream size : 137 MiB (61%)

Audio
ID : 2
Format : AAC
Format/Info : Advanced Audio Codec
Format profile : LC
Codec ID : 40
Duration : 1h 36mn
Bit rate mode : Variable
Bit rate : 123 Kbps
Channel(s) : 2 channels
Channel positions : Front: L R
Sampling rate : 32.0 KHz
Compression mode : Lossy
Stream size : 84.8 MiB (38%)


warning. adult image
screen
warning. adult image
screen 1
warning. adult image
screen
warning. adult image
29823944157964640707.png
warning. adult image
63505116799617453906.png

Please SEED.


MY UPLOADING SPEED IS VERY SLOW SO PLEASE BE PATIENT.very soon cdrip will come iwill upload cdrip too.

Download PASHTO XXX DRAMA JAWARGAR MP4 From PASHTOXXX torrent


Related Torrents

Added Size Health
DownloadHindi PASHTO XXX DRAMA Uff Lamba Lamba Shum Avi By PashtoXXX in Video, by 2y562.39 MB------



Comments (please add your comment)
1
posted by (2012-10-15 04:51:57)
No avatarnice upload, where did u get this? i have tried looking for such in peshawer but CD centres dont sell to people they dont know.

Upload more plz!


2
posted by (2012-10-15 08:03:23)
No avatarkya baat hy ustaad...
bring more...
try some good quality ...


3
posted by (2012-10-15 08:46:49)
No avatarmaybe a few stage mujra would be nice too


4
posted by (2012-10-15 10:36:48)
kamran2012 avatarthanks can u upload some more!!!!


5
posted by (2012-10-15 14:16:30)
No avatarhaha upload more like thses


6
posted by (2012-10-15 16:30:08)
PashtoXXX avatarthankx for comment i will try to upload more pashto xxx videos.


7
posted by (2013-01-13 18:15:39)
guyromantick avatarthanks for nice upload mey i see urs more upload mujraas and movies


8
posted by (2013-04-06 07:39:59)
No avatarthanksss alot bro !! please upload more xxx vids like this ! i will b waitin !
keep it up frnd


9
posted by (2013-05-06 20:18:45)
No avatarPlease upload high quality videos... please


10
posted by (2014-03-16 10:22:12)
Jiltex avatarupload ka nur hum dase ka sa v ra v darsara




Recent Searches

dvd     tell me how i die 720p     ETRG     assassin's creed     wild card 720p     Forza Horizon     ms dhoni     pirates of the caribbean at worlds end 720p     movie     an elfs story the elf on the shelf 720p     Blacked     teenage mutant ninja turtles out of the shadows 72     shameless s06e06 720p     DDR     gravity 720p     ETTV     Let me teach you     errbody yo gotti     heaven is for real 720p     crash dive     madeline merlo warpaint mp3     olita oshin gangbang     sherlock     adult     family strokes     Original Sin     The Good Place S01E01 720p     raylin ann bilck     luke cage s01e08 720p     flstudios     Holly Halston - Tight Jeans     scream queens s02e02     how to get away with murder s02e01     the goldbergs s03e05 720p     Mechanic Resurrection 720p     crown-influentialJ     anime     ice age collision course brrip     modern family s06e01 720p     marc anthony     music     straight outta compton 720p     Rihanna     narcos S02E06 720p     team jaffa     porn     sex     Teenage turtles     ghostbusters 2016 1080p     this is us     bea alonzo     software     South Park S15     daw daw     shameless s07e01 720p     star wars episode 4 - a new hope 720p     Dr. Taylor Takes Her Medicine     origin of evil     luke cage s01e10     kicking up mud     arrow s01e03 720p     



Home - Browse Torrents - Upload Torrent - Stat - Forum - FAQ - Login
ExtraTorrent.cc is in compliance with copyrights
BitCoin: 12DiyqsWhENahDzdhdYsRrCw8FPQVcCkcm
Can't load ExtraTorrent? Try our official mirrors: etmirror.com - etproxy.com - extratorrentonline.com - extratorrentlive.com
2006-2016 ExtraTorrent.cc4