ExtraTorrent.cc - The Largest Bittorent SystemLogin   |   Register
Latest Articles
Recommend us with Google

Most searched
Hot torrents
First Cams
View Torrent Info: Mission.Impossible.5.Rogue.Nation.2015.HDTS.Xvid-CRYS
View Torrent Info: Pixels.2015.V2.CAM.x264-MenaceIISociety
View Torrent Info: Minions.2015.TS.NEW.SOURCE.x264.AC3-EVE
View Torrent Info: Inside.Out.2015.HDTURBO.TS.XviD.AC3-SUPERCHiVED
Hot torrents
XVID DIVX
View Torrent Info: Aloft.2014.BDRip.XviD.AC3-EVO
View Torrent Info: Four.Brothers.2005.BRRip.XViD-ETRG
View Torrent Info: Anger.of.the.Dead.2015.BDRip.XviD.AC3-EVO
View Torrent Info: Batman.Unlimited.Monster.Mayhem.2015.DVDRip.XviD-EVO
Hot torrents
H264 X264
View Torrent Info: Big.Game.2014.BRRip.1080p.AAC.x264[ETRG]
View Torrent Info: Anger.of.the.Dead.2015.720p.BluRay.x264.AAC-ETRG
View Torrent Info: Unfriended.2014.BRRip.720p.AAC.x264[ETRG]
View Torrent Info: Listen.Up.Philip.2014.720p.BluRay.x264.AAC-ETRG
Hot torrents
Television
View Torrent Info: True Detective S02E07 HDTV x264-BATV[ettv]
View Torrent Info: The Strain S02E04 HDTV x264-2HD[ettv]
View Torrent Info: Falling Skies S05E06 HDTV x264-KILLERS[ettv]
View Torrent Info: Ray Donovan S03E04 HDTV x264-LOL[ettv]
View Torrent Info: Drishyam (2015) 1 CD DvDScr Rip x264 Cleaned Audio [DDR-Exclusive]
View Torrent Info: Piku (2015) - 1080p mHD - Blu-Ray - x264 - 5.1 AAC - Esubs [DDR-ExclusivE]
View Torrent Info: [ 18] The Demons (1973) BRRip 720p x264 [Eng Sub][French AC3 2.0]--prisak~~{HKRG}
View Torrent Info: Tanu.Weds.Manu.Returns.2015.720p.BluRay.x264.Hindi.AAC-ETRG
30s
Chat
To add new messages please Login or Register for FREE


ExtraTorrent.cc > Categories > Adult / Porn torrents > Video torrents


Browse Adult / Porn torrents

PASHTO XXX DRAMA JAWARGAR MP4 From PASHTOXXX torrent


Download torrent:Download PASHTO XXX DRAMA JAWARGAR MP4 From PASHTOXXX torrentMagnet linkBookmark Torrent: PASHTO XXX DRAMA JAWARGAR MP4 From PASHTOXXXSend Torrent: PASHTO XXX DRAMA JAWARGAR MP4 From PASHTOXXX PASHTO XXX DRAMA JAWARGAR MP4 From PASHTOXXX torrent
Info hash:3F507FC28ACFDF1B12BB63A9FE6F3653F7B4D6F2
Category:Categories > Adult / Porn torrents > Video torrents
Trackers:
13   View all torrent trackers >
Seeds:3Update seeds and leechers stat
Leechers:0
Health:
Torrent language:Hindi Hindi
Total Size:224.02 MB
Number of files:
1   View torrent files >
Uploader:
Torrent added:2012-10-14 10:21:41   |   Last edit: 2012-10-14 10:53:26 by

Download PASHTO XXX DRAMA JAWARGAR MP4 From PASHTOXXX torrent


Torrent Description
FIRST TIME PASHTO XXX DRAMA IN PAKISTAN

NAME:JAWARGAR



INFO:

Video
ID : 1
Format : AVC
Format/Info : Advanced Video Codec
Format profile : [email protected]
Format settings, CABAC : No
Format settings, ReFrames : 1 frame
Codec ID : avc1
Codec ID/Info : Advanced Video Coding
Duration : 1h 36mn
Bit rate : 199 Kbps
Width : 176 pixels
Height : 144 pixels
Display aspect ratio : 4:3
Frame rate mode : Constant
Frame rate : 12.000 fps
Color space : YUV
Chroma subsampling : 4:2:0
Bit depth : 8 bits
Scan type : Progressive
Bits/(Pixel*Frame) : 0.655
Stream size : 137 MiB (61%)

Audio
ID : 2
Format : AAC
Format/Info : Advanced Audio Codec
Format profile : LC
Codec ID : 40
Duration : 1h 36mn
Bit rate mode : Variable
Bit rate : 123 Kbps
Channel(s) : 2 channels
Channel positions : Front: L R
Sampling rate : 32.0 KHz
Compression mode : Lossy
Stream size : 84.8 MiB (38%)


warning. adult image
screen
warning. adult image
screen 1
warning. adult image
screen
warning. adult image
29823944157964640707.png
warning. adult image
63505116799617453906.png

Please SEED.


MY UPLOADING SPEED IS VERY SLOW SO PLEASE BE PATIENT.very soon cdrip will come iwill upload cdrip too.

Download PASHTO XXX DRAMA JAWARGAR MP4 From PASHTOXXX torrent


Comments (please add your comment)
1
posted by (2012-10-15 04:51:57)
No avatarnice upload, where did u get this? i have tried looking for such in peshawer but CD centres dont sell to people they dont know.

Upload more plz!


2
posted by (2012-10-15 08:03:23)
No avatarkya baat hy ustaad...
bring more...
try some good quality ...


3
posted by (2012-10-15 08:46:49)
No avatarmaybe a few stage mujra would be nice too


4
posted by (2012-10-15 10:36:48)
kamran2012 avatarthanks can u upload some more!!!!


5
posted by (2012-10-15 14:16:30)
No avatarhaha upload more like thses


6
posted by (2012-10-15 16:30:08)
PashtoXXX avatarthankx for comment i will try to upload more pashto xxx videos.


7
posted by (2013-01-13 18:15:39)
guyromantick avatarthanks for nice upload mey i see urs more upload mujraas and movies


8
posted by (2013-04-06 07:39:59)
No avatarthanksss alot bro !! please upload more xxx vids like this ! i will b waitin !
keep it up frnd


9
posted by (2013-05-06 20:18:45)
No avatarPlease upload high quality videos... please


10
posted by (2014-03-16 10:22:12)
Jiltex avatarupload ka nur hum dase ka sa v ra v darsara




Recent Searches




Home - Browse Torrents - Upload Torrent - Stat - Forum - FAQ - Torrent sitemap - Login
ExtraTorrent.cc is in compliance with copyrights
BitCoin: 1XeH1kKXWYbzZcFHokGiZ4d3MWW5WyXzU
2006-2015 ExtraTorrent.cc