ExtraTorrent.cc - The Largest Bittorent SystemLogin   |   Register
Latest Articles
Most searched
Hot torrents
First Cams
View Torrent Info: The Fate of the Furious 2017 HD-TS x264 AC3-CPG
View Torrent Info: The Boss Baby 2017 720p HD-TS x264 AC3-CPG
View Torrent Info: Before I Fall 2017 HDCAM 700MB x264-DiRG
View Torrent Info: The Belko Experiment 2017 HDCAM 700MB x264-DiRG
Hot torrents
XVID DIVX
View Torrent Info: The.Void.2016.BRRip.XviD.AC3-EVO
View Torrent Info: Joes.War.2017.HDRip.XviD.AC3-EVO
View Torrent Info: The.Levelling.2016.HDRip.XviD.AC3-EVO
View Torrent Info: Fifty.Shades.Darker.2017.UNRATED.HDRip.XviD.AC3-EVO
Hot torrents
H264 X264
View Torrent Info: Fifty.Shades.Darker.2017.UNRATED.720p.WEB-DL.H264.AC3-EVO[EtHD]
View Torrent Info: Jurassic World (2015) 720p BluRay x264 DTS Soup
View Torrent Info: Wolves.At.the.Door.2016.720p.WEB-DL.H264.AC3-ETRG
View Torrent Info: The.Legend.of.Ben.Hall.2016.720p.BluRay.x264-ENCOUNTERS[EtHD]
Hot torrents
BluRay, 4k UHD
View Torrent Info: The Legend of Ben Hall 2016 Bluray 1080p x264 DTSHD5.1 -DDR
View Torrent Info: Hacker.2016.BluRay.1080p.AVC.DTS-HD.MA5.1-DDR
View Torrent Info: Carmen.1984.1080p.Blu-ray.x264.DTSHD.5.1-DDR
View Torrent Info: Planet Earth II S01E05-06 HEVC 2160p UHD 360? BluRay HDR DTSHD5.1-DDR
Hot torrents
Television
View Torrent Info: Prison.Break.S05E04.HDTV.x264-KILLERS[ettv]
View Torrent Info: Marvels.Agents.of.S.H.I.E.L.D.S04E19.HDTV.x264-KILLERS[ettv]
View Torrent Info: The.Americans.2013.S05E08.HDTV.x264-KILLERS[ettv]
View Torrent Info: Chicago.Fire.S05E19.HDTV.x264-KILLERS[ettv]
View Torrent Info: Bhaskar The Rascal (2015) Bluray 1080p x264 DTSHD 5.1 -DDR
View Torrent Info: Sing 2016 720p BluRay Hindi DD 5.1 x264-SnowDoN
View Torrent Info: House II : The Second Story (1987) x264 720p UNCUT BluRay Eng Subs {Dual Audio} [Hindi ORG DD 2.0   English 5.1] Exclusive By DREDD
View Torrent Info: Winner (2017) - 1080p - WEBRip - x264 - AC3 - ESub - [DDR]
30s
Chat
To add new messages please Login or Register for FREE
Warning! Protect Yourself from Lawsuits and Fines!
Your IP Address is 23.20.50.242.   Location is United States
Your IP Address is visible to EVERYONE. Hide your IP ADDRESS with a VPN while torrenting!
ExtraTorrent strongly recommends using Trust.Zone VPN to anonymize your torrenting. It's FREE!
Hide my IP address!

ExtraTorrent.cc > Categories > Music torrents > Classic torrents


Browse Music torrents

Johannes Walter, Flote - Dresdner Kammersolisten torrent


Download torrent:Download Johannes Walter, Flote - Dresdner Kammersolisten torrentMagnet linkBookmark Torrent: Johannes Walter, Flote - Dresdner Kammersolisten Johannes Walter, Flote - Dresdner Kammersolisten torrent
Info hash:E3C7F8C54B00614D3B39FE747A5536271A123AFC
Category:Categories > Music torrents > Classic torrents
Trackers:
1   View all torrent trackers >
Health:
 seeds: ---, leechers: ---| Update >
Total Size:313.53 MB
Number of files:
5   View torrent files >
Torrent added:2006-07-02 08:41:48
Users rating:---, not rated. please login to rate.

Download Johannes Walter, Flote - Dresdner Kammersolisten torrent




Your IP Address is 23.20.50.242.   Location is United States
Your Internet Provider and Government can track your torrent activity!  Hide your IP ADDRESS with a VPN!
ExtraTorrent strongly recommends using Trust.Zone VPN to anonymize your torrenting. It's FREE!

HIDE ME NOW
Torrent Description
Cover:http://www.hdcdape.com/UploadFile/2006-7/20067123271398104.jpg

PERFORMER "Johannes Walter, Flote - Dresdner Kammersolisten"
TITLE "Johann Joachim, Quantz - Flotenkonzerte"
FILE "CDImage.ape" WAVE
TRACK 01 AUDIO
TITLE "Konzert fur Flote, Streicher und Basso continuo G-Dur Nr. 161 QV 5:174 - 1. Allegro assai"
PERFORMER "Johannes Walter, Flote - Dresdner Kammersolisten"
PREGAP 00:02:00
INDEX 01 00:00:00
TRACK 02 AUDIO
TITLE "2. Arioso e mesto"
PERFORMER "Johannes Walter, Flote - Dresdner Kammersolisten"
INDEX 01 05:32:15
TRACK 03 AUDIO
TITLE "3. Presto"
PERFORMER "Johannes Walter, Flote - Dresdner Kammersolisten"
INDEX 01 11:17:60
TRACK 04 AUDIO
TITLE "Konzert fur Flote, Streicher und Basso continuo h-Moll Nr. 187 QV 5:272 - 1. Allegro assai"
PERFORMER "Johannes Walter, Flote - Dresdner Kammersolisten"
INDEX 01 16:02:37
TRACK 05 AUDIO
TITLE "2. Arioso"
PERFORMER "Johannes Walter, Flote - Dresdner Kammersolisten"
INDEX 01 22:45:25
TRACK 06 AUDIO
TITLE "3. Prestissimo"
PERFORMER "Johannes Walter, Flote - Dresdner Kammersolisten"
INDEX 01 28:18:30
TRACK 07 AUDIO
TITLE "Konzert fur Flote, Streicher und Basso continuo Es-Dur Nr. 109 QV 5:92 - 1. Con spirito"
PERFORMER "Johannes Walter, Flote - Dresdner Kammersolisten"
INDEX 01 32:31:65
TRACK 08 AUDIO
TITLE "2. Affetuoso"
PERFORMER "Johannes Walter, Flote - Dresdner Kammersolisten"
INDEX 01 38:20:20
TRACK 09 AUDIO
TITLE "3. Vivace"
PERFORMER "Johannes Walter, Flote - Dresdner Kammersolisten"
INDEX 01 42:33:34
TRACK 10 AUDIO
TITLE "Konzert fur Flote, Streicher und Basso continuo g-Moll Nr. 192 QV 5:192 - 1. Allegro assai"
PERFORMER "Johannes Walter, Flote - Dresdner Kammersolisten"
INDEX 01 48:07:20
TRACK 11 AUDIO
TITLE "2. Cantabile"
PERFORMER "Johannes Walter, Flote - Dresdner Kammersolisten"
INDEX 01 54:39:15
TRACK 12 AUDIO
TITLE "3. Vivace"
PERFORMER "Johannes Walter, Flote - Dresdner Kammersolisten"
INDEX 01 60:43:37

Download Johannes Walter, Flote - Dresdner Kammersolisten torrent

Comments (please add your comment)
No comments



Home - Browse Torrents - Upload Torrent - Stat - Forum - FAQ - Login
ExtraTorrent.cc is in compliance with copyrights
Can't load ExtraTorrent? Try our official mirrors: etmirror.com - etproxy.com - extratorrentonline.com - extratorrentlive.com
2006-2017 ExtraTorrent.cc3