ExtraTorrent.cc - The Largest Bittorent SystemLogin   |   Register
Latest Articles
Most searched
Hot torrents
First Cams
View Torrent Info: The.Fate.of.the.Furious.2017.HDTS.H264.AC3.HQ.Hive-CM8
View Torrent Info: The Boss Baby 2017 720p HD-TS x264 AC3-CPG
View Torrent Info: Before I Fall 2017 HDCAM 700MB x264-DiRG
View Torrent Info: The Belko Experiment 2017 HDCAM 700MB x264-DiRG
Hot torrents
XVID DIVX
View Torrent Info: Small.Crimes.2017.HDRip.XviD.AC3-EVO
View Torrent Info: The.Sex Addict.2017.HDRip.XViD-ETRG
View Torrent Info: A.Dark.Song.2016.HDRip.XviD.AC3-EVO
View Torrent Info: Voice.from.the.Stone.2017.HDRip.XViD-ETRG
Hot torrents
H264 X264
View Torrent Info: Rogue One (2016) 720p BluRay x264 DTS Soup
View Torrent Info: Sold (2016) x264 DvDRip DDS 5.1 Esub -DDR
View Torrent Info: Voice.from.the.Stone.2017.720p.WEB-DL.H264.AC3-ETRG
View Torrent Info: The Green Mile (1999) 720p BluRay x264 AC3 Soup
Hot torrents
BluRay, 4k UHD
View Torrent Info: Fifty.Shades.Darker.2017.UNRATED.Multi.1080p.BluRay.x264.DTSHD7.1-DDR
View Torrent Info: Avatar.2009.4K.HDR.10bit.BT2020.DTS.HD.MA-VISIONPLUSHDR1000
View Torrent Info: The Void 2016 Bluray 1080P x264 DTSHD 5.1 -DDR
View Torrent Info: The Legend of Ben Hall 2016 Bluray 1080p x264 DTSHD5.1 -DDR
Hot torrents
Television
View Torrent Info: The.Blacklist.S04E18.HDTV.x264-KILLERS[ettv]
View Torrent Info: Greys.Anatomy.S13E21.HDTV.x264-KILLERS[ettv]
View Torrent Info: The.Last.Kingdom.S02E07.HDTV.x264-MTB[ettv]
View Torrent Info: Arrow.S05E19.WEB-DL.x264-FUM[ettv]
View Torrent Info: [ 18] High Test Girls (1980) DVDRip x264 [Dual Audio][German English]--prisak~~{HKRG}
View Torrent Info: Baahubali 2 (2017) DesiCAM 1CDRIP x264 AAC [DDR]
View Torrent Info: Maya (2015) 1080p Untouched WEBHD AVC AAC [DDR]
View Torrent Info: Rebel (2012) 1080p Bluray x264 DTSHD 5.1 ESub -DDR
30s
Chat
To add new messages please Login or Register for FREE
Warning! Use a VPN When Downloading Torrents!
Your IP Address is 54.158.39.172.   Location is United States
Your Internet Provider and Government can track your torrent activity!  Hide your IP ADDRESS with a VPN!
ExtraTorrent strongly recommends using Trust.Zone VPN to anonymize your torrenting. It's FREE!
Get VPN Now for FREE!

ExtraTorrent.cc > Categories > Music torrents > Techno torrents


Browse Music torrents

VA - Jump 2006 Volume 4-CD-2006-HB torrent


Download torrent:Download VA - Jump 2006 Volume 4-CD-2006-HB torrentMagnet linkBookmark Torrent: VA - Jump 2006 Volume 4-CD-2006-HB VA - Jump 2006 Volume 4-CD-2006-HB torrent
Info hash:D65A72A5E020715AF0CF27D4BA2EE0814A2171BA
Category:Categories > Music torrents > Techno torrents
Trackers:
1   View all torrent trackers >
Health:
 seeds: 0, leechers: 12| Update >
Total Size:112.10 MB
Number of files:
8   View torrent files >
Torrent added:2007-01-23 00:27:39
Users rating:---, not rated. please login to rate.

Download VA - Jump 2006 Volume 4-CD-2006-HB torrent




Your IP Address is 54.158.39.172.   Location is United States
Your Internet Provider and Government can track your torrent activity!  Hide your IP ADDRESS with a VPN!
ExtraTorrent strongly recommends using Trust.Zone VPN to anonymize your torrenting. It's FREE!

HIDE ME NOW
Torrent Description
Jump 2006 Vol 4

CUE:

PERFORMER "VA"
TITLE "Jump 2006 Volume 4"
FILE "01_va_-_jump_2006_volume_4-hb.mp3" MP3
TRACK 01 AUDIO
TITLE "Intro Jump 06 #04"
PERFORMER "Core Design"
INDEX 01 00:00:00
TRACK 02 AUDIO
TITLE "Funky Dope"
PERFORMER "Polycarpus"
INDEX 01 00:29:63
TRACK 03 AUDIO
TITLE "The Last Time"
PERFORMER "Binum"
INDEX 01 03:35:32
TRACK 04 AUDIO
TITLE "Pump Up The Volume"
PERFORMER "Relic"
INDEX 01 07:31:30
TRACK 05 AUDIO
TITLE "Poly Meets The Devil"
PERFORMER "Polycarpus"
INDEX 01 09:18:43
TRACK 06 AUDIO
TITLE "Control"
PERFORMER "DJ Massiv vs. The Rebel"
INDEX 01 13:41:20
TRACK 07 AUDIO
TITLE "The New Generation"
PERFORMER "Oxley"
INDEX 01 18:27:06
TRACK 08 AUDIO
TITLE "Da Bad Guy (Point Your Finger Mix)"
PERFORMER "Steve Dexter Trax"
INDEX 01 22:55:43
TRACK 09 AUDIO
TITLE "Manga Party"
PERFORMER "Chicago Zone"
INDEX 01 28:32:22
TRACK 10 AUDIO
TITLE "Join The Unit"
PERFORMER "DJ Massiv"
INDEX 01 32:45:06
TRACK 11 AUDIO
TITLE "Bass Generator"
PERFORMER "DJ Stone"
INDEX 01 36:59:34
TRACK 12 AUDIO
TITLE "Go Back To"
PERFORMER "Fog System"
INDEX 01 40:20:28
TRACK 13 AUDIO
TITLE "Cracked"
PERFORMER "DJ Coone"
INDEX 01 42:21:21
TRACK 14 AUDIO
TITLE "Fuck You!"
PERFORMER "Polycarpus"
INDEX 01 45:18:34
TRACK 15 AUDIO
TITLE "Back In Time"
PERFORMER "DJ Massiv vs. The Rebel"
INDEX 01 48:56:25
TRACK 16 AUDIO
TITLE "Hey! (Main Mix)"
PERFORMER "Steve Dexter Trax"
INDEX 01 53:12:19
TRACK 17 AUDIO
TITLE "Make Ya Bounce (Original Mix)"
PERFORMER "John Low vs G-Tonix"
INDEX 01 56:39:49
TRACK 18 AUDIO
TITLE "Everyway"
PERFORMER "Chicago Zone"
INDEX 01 61:34:12
TRACK 19 AUDIO
TITLE "Here Comes Da Pain"
PERFORMER "DJ Zion"
INDEX 01 66:58:20
TRACK 20 AUDIO
TITLE "Outro Jump 06 #04"
PERFORMER "Core Design"
INDEX 01 69:39:26

Download VA - Jump 2006 Volume 4-CD-2006-HB torrent


Related Torrents


Comments (please add your comment)
No comments



Home - Browse Torrents - Upload Torrent - Stat - Forum - FAQ - Login
ExtraTorrent.cc is in compliance with copyrights
Can't load ExtraTorrent? Try our official mirrors: etmirror.com - etproxy.com - extratorrentonline.com - extratorrentlive.com
2006-2017 ExtraTorrent.cc1